<?xml version="1.0" standalone="no"?>
<!DOCTYPE svg PUBLIC "-//W3C//DTD SVG 1.1//EN" "http://www.w3.org/Graphics/SVG/1.1/DTD/svg11.dtd" >
<svg xmlns="http://www.w3.org/2000/svg">
<metadata></metadata>
<defs>
<font id="helenaregular" horiz-adv-x="673" >
<font-face units-per-em="2048" ascent="1536" descent="-512" />
<missing-glyph horiz-adv-x="614" />
<glyph horiz-adv-x="0" />
<glyph unicode="&#xd;" horiz-adv-x="614" />
<glyph horiz-adv-x="0" />
<glyph horiz-adv-x="0" />
<glyph unicode=" "  horiz-adv-x="614" />
<glyph unicode="&#x09;" horiz-adv-x="614" />
<glyph unicode="&#xa0;" horiz-adv-x="614" />
<glyph unicode="!" horiz-adv-x="432" d="M0 -260q2 37 25.5 57.5t52.5 30.5q49 20 100 49q29 16 55.5 5t53.5 -25q23 -12 33 -28.5t4 -43.5q-2 -10 1 -22.5t1 -22.5q-12 -66 -39 -88.5t-97 -18.5q-23 2 -45 2t-45 3q-25 2 -44 10t-21 43q0 10 -12.5 21.5t-22.5 27.5zM53 718.5q0 94.5 4 188.5q4 53 15.5 104.5 t21.5 104.5q4 27 9.5 53.5t11.5 53.5q4 27 10 52l12 50q23 -2 39.5 -3t32.5 -3q68 -6 104.5 -53t32.5 -115q-2 -35 0 -66.5t4 -66.5q2 -8 4 -16.5t6 -12.5q23 -20 28 -43.5t9 -50.5q4 -35 12.5 -67.5t14.5 -66.5t8 -68t-6 -68q-2 -4 -1 -10.5t-1 -10.5q-16 -35 -21.5 -69.5 t-6.5 -71.5l-2 -74t-9 -72q-6 -31 -14.5 -61.5t-18.5 -60.5q-4 -10 -15 -19.5t-26.5 -15.5t-32 -9.5t-28.5 -0.5q-16 4 -31.5 8t-32.5 6q-53 6 -74.5 25.5t-29.5 72.5q-10 66 -16.5 133.5t-10.5 134.5q-2 94 -2 188.5z" />
<glyph unicode="&#x22;" horiz-adv-x="317" d="M2 1131.5q-2 37.5 0 76.5q0 29 7.5 59.5t13.5 63.5q33 -4 53 -18.5t20 -38.5q0 -66 -9 -129.5t-38 -122.5q-37 0 -41 35q-4 37 -6 74.5zM176 989q-2 90 12.5 171t30.5 163h29q35 -4 49 -16.5t18 -46.5q2 -14 2 -27.5v-28.5q-4 -27 -6 -51t-6 -53q-8 4 -13 4t-11 4 q-6 -12 -13.5 -23.5t-9.5 -23.5q-6 -35 -30.5 -45t-51.5 -27z" />
<glyph unicode="#" horiz-adv-x="1540" d="M0 692q33 16 67.5 21.5t69.5 6.5t71 2t71 11q16 47 14 96.5t0 96.5q2 29 -1 58.5t1 57.5q6 43 16 86t21 89q57 -2 85.5 -27t39.5 -72q4 -10 5 -21.5t7 -21.5q47 -74 62.5 -157.5t25.5 -174.5q35 -4 69.5 -5t71.5 -3q14 135 27.5 266.5t28.5 266.5q27 0 46 1t38 -3 q41 -10 71.5 -24.5t49 -37t21.5 -56.5t-11 -83q-4 -12 -3 -24.5t1 -26.5v-297q61 -23 125.5 -33t130 -18.5t131 -19.5t131.5 -36h-385q-43 0 -67.5 -2t-35 -13t-10.5 -34.5t4 -66.5q4 -29 9.5 -58.5t9.5 -64.5q133 -10 267 -18.5t265 -47.5q-18 -14 -38.5 -20t-42 -9.5 t-44 -4.5t-43.5 -7q-41 -12 -84 -20t-86 -15q-45 -6 -90 -9t-94 -7v-79t-2 -79t-4 -79.5t-8 -79.5q-4 -20 -11.5 -42t-42.5 -20q-6 0 -14 -7t-10 -13q-2 -25 -12.5 -42.5t-27 -30.5t-34.5 -24.5t-35 -25.5q-47 135 -73.5 273t-36.5 286q-41 -4 -76 -9t-72 -10q-6 -35 -6 -55 q0 -29 2 -57.5t-4 -57.5q-6 -25 -18.5 -47t-28.5 -45q-16 -20 -37 -39.5t-45 -44.5q-31 86 -59.5 168t-57.5 162q-41 -6 -67.5 -6t-54 10t-63.5 31.5t-93 62.5q66 16 125 28.5t118 27.5v254q-33 -4 -60.5 -5.5t-55.5 -5.5q-33 -4 -54.5 -3t-38 9.5t-30 26t-31.5 47.5z M535 395h159v226q-41 -6 -73.5 -10.5t-67.5 -8.5q-4 -53 -9 -103t-9 -104z" />
<glyph unicode="$" horiz-adv-x="712" d="M0.5 115q9.5 41 38.5 78q10 14 24.5 23.5t30.5 25.5q10 -35 21.5 -69t17.5 -69q4 -27 20.5 -48t40 -34.5t50 -16.5t51.5 7q8 4 6 4q43 6 68.5 24.5t39 44.5t16.5 57.5t1 66.5q-4 59 -12 115.5t-19 113.5q-12 55 -49 94q-41 47 -84 91.5t-88 87.5q-66 66 -72 145.5 t54 147.5q6 8 12 14t14 10q41 12 56.5 44t27.5 67q23 55 41 116q10 29 20.5 56.5t20.5 56.5q33 4 35 -13.5t2 -33.5l-6 -197q-2 -8 -1 -15t1 -11q53 -20 102 -37t99 -35q4 -4 5 -15.5t5 -25.5q-29 -6 -56.5 -11t-54.5 -9q-16 16 -34.5 30.5t-43.5 36.5q-2 -51 -24.5 -57 t-50.5 -2q-10 -14 -16.5 -24.5t-14.5 -20.5q-31 -35 -23.5 -80t45.5 -74q33 -23 63 -44t62 -44q72 -47 130.5 -103.5t105.5 -127.5q14 -20 18 -39t9 -41q8 -61 8 -119.5t-17 -122.5q-14 -63 -38.5 -116.5t-61.5 -104.5q-27 -37 -59.5 -61.5t-79.5 -28.5q-31 -4 -45.5 -19.5 t-24.5 -44.5q-10 -35 -24.5 -69.5t-30.5 -69.5q-4 -8 -12.5 -13t-18.5 -16q-16 53 -32.5 104.5t-32.5 102.5q-8 25 -22.5 39t-35.5 31q-43 39 -83 80t-75 88q-29 39 -19.5 80z" />
<glyph unicode="%" horiz-adv-x="1277" d="M0 730.5q4 37.5 25 72.5q4 8 11 14t13 12q10 12 45 26.5t76 23t78 3.5t53 -34q25 -43 34 -89t11 -89q-8 -29 -29.5 -44.5t-60.5 -31.5q-23 -2 -48.5 -3t-51.5 -3q-47 -2 -82 23.5t-58 54.5q-20 27 -16 64.5zM20.5 -345.5q-0.5 26.5 12.5 50.5q29 55 55.5 110.5 t58.5 108.5q35 57 75 110.5t77 110.5q16 25 27.5 50.5t23.5 52.5q12 29 52 93.5t93.5 146t113 171t111.5 168t88 136t44 77.5q25 61 56.5 116.5t72.5 109.5q27 31 51 69q14 18 29.5 30.5t42.5 6.5q59 -16 67 -82q6 -47 -18 -96q-18 -37 -29.5 -77t-29.5 -77 q-16 -35 -60.5 -118.5t-102 -192t-122 -229.5t-123.5 -227.5t-105 -186.5t-67 -109q-41 -57 -80 -113.5t-69 -117.5q-29 -53 -72 -83t-92 -50q-18 -8 -40 -15.5t-43.5 -10.5t-43.5 0.5t-45 17.5q-8 23 -8.5 49.5zM121 694q14 -23 29.5 -33t44.5 1q4 27 2 49t-37 37 q-51 7 -39 -54zM824.5 33q-15.5 53 6.5 106q25 55 62 98.5t98 59.5q10 2 33 2t47.5 -4t45 -10.5t28.5 -14.5q37 -12 62.5 -41.5t41 -60.5t21.5 -56.5t6 -31.5q-6 -49 -38 -79t-67 -50q-66 -37 -138 -39t-144 39q-49 29 -64.5 82zM948 66q-12 -37 4.5 -64t53.5 -31 q18 -4 39.5 4.5t40 21.5t30.5 32.5t14 38.5q0 8 -3 16t-7 16q-12 20 -23.5 39.5t-25.5 42.5q-90 -20 -123 -116z" />
<glyph unicode="&#x26;" horiz-adv-x="1560" d="M1 356.5q3 36.5 7 71.5q14 86 48 161t85 142q37 49 84 93t94 98q0 23 -2 52.5t-2 61.5q0 63 25 120.5t82 86.5q4 2 23.5 10.5t46 15.5t54 12t48.5 3q53 -8 102 -19.5t90 -52.5q29 -29 40.5 -69.5t-7.5 -79.5q-4 -8 -6 -14q-10 -35 -49 -29q-2 2 -10 2q-31 6 -37 41 q-2 23 -16.5 44t-36 36.5t-46 20.5t-49.5 -5q-12 -6 -26.5 -16t-27.5 -28.5t-23.5 -45.5t-12.5 -65q0 -55 10.5 -91t26.5 -60t40 -38t50 -29q16 -10 27.5 -21t-4.5 -36h-84q-66 2 -108 -30.5t-64 -90.5q-20 -49 -38 -99t-32 -101q-35 -137 -2 -267.5t143 -208.5 q61 -33 116.5 -54t127.5 -17q8 0 14.5 2t12.5 4q86 31 141 78t92 112q4 4 3 10.5t-1 16.5q-10 -4 -19 -4t-18 -4q-72 -29 -146.5 -11.5t-137.5 48.5q-18 8 -43 23.5t-49.5 40t-44 59t-27.5 81.5q4 41 15.5 82t45.5 76q25 27 57.5 39t65.5 14t63.5 -4t49.5 -18q29 -18 40 -50 t-1 -57q-23 -47 -105 -26q35 16 44.5 36.5t-13.5 63.5q-18 12 -38.5 12t-40 -9t-36 -26.5t-24.5 -37.5q-43 -100 55 -166q47 -31 96 -38t93.5 7t80 49t56.5 88q29 72 41 146.5t20 150.5q8 78 49 130t90 100q35 33 83 34.5t95.5 -12.5t87.5 -39.5t60 -50.5q31 -33 48.5 -81 t15 -99t-21.5 -96.5t-62 -71.5q-59 -49 -112 -42t-110 73q31 -10 52 -15q43 -8 91 17.5t64 66.5q14 35 10 81t-25.5 85t-62.5 62.5t-100 15.5q-31 -6 -51.5 -29.5t-33.5 -55.5t-18 -70t-5 -72q0 -49 -2.5 -98.5t-12.5 -96.5q-10 -41 -26.5 -80t-32.5 -80q-4 -10 -12.5 -20 t-4.5 -17q20 -45 11 -82.5t-29 -85.5q-27 -72 -82 -126q-16 -16 -30.5 -37t-48.5 -44.5t-97.5 -50t-177.5 -55.5q-90 -23 -169 -12.5t-151 59.5q-92 61 -155.5 151.5t-98.5 194.5q-16 47 -29.5 92.5t-21.5 92.5q-6 35 -3 71.5z" />
<glyph unicode="'" horiz-adv-x="104" d="M10 1417q49 12 75 -14.5t17 -73.5q-8 -47 -9 -96t-5 -96q0 -14 2 -27.5t-2 -28.5q-2 -10 -8 -21.5t-12 -25.5q-14 47 -24.5 88t-23.5 80q-33 104 -10 215z" />
<glyph unicode="(" horiz-adv-x="460" d="M4 430q6 70 12.5 125t14.5 105.5t18 102.5t25.5 113.5t38 138.5t55.5 179q10 29 23.5 55.5t27.5 55.5q23 -2 41.5 -2t34.5 -5q29 -6 51.5 -33.5t11.5 -50.5q-10 -23 -18 -76t-15.5 -123.5t-14.5 -151.5t-13 -158.5t-10 -144t-8 -107.5q-4 -43 1 -87t5 -87q-2 -86 10 -169 t45 -161q27 -61 59.5 -119.5t61.5 -116.5q-51 -51 -96.5 -57t-96.5 35q-29 23 -53.5 52.5t-44.5 61.5q-29 45 -52.5 92.5t-45.5 94.5q-47 104 -60.5 206.5t-7.5 231.5z" />
<glyph unicode=")" horiz-adv-x="401" d="M4 1257q-10 20 4.5 38t36.5 12q41 -12 74 -36t55 -71q16 -37 43 -66.5t47 -64.5q23 -45 45.5 -91t36.5 -95q37 -127 47 -256q8 -84 8 -166t-4 -168q-2 -72 -9 -140.5t-13 -140.5q0 -6 -12.5 -55t-43 -110.5t-81 -120t-125.5 -82.5q-16 -4 -29.5 6t-15.5 26q0 10 2 17 q12 82 24 163t27 164q6 45 11 109t9 111q4 96 9.5 191t9.5 192q4 133 -23.5 257t-75.5 246q-12 33 -26.5 64.5t-30.5 66.5z" />
<glyph unicode="*" horiz-adv-x="499" d="M0 1151q39 20 76 10t78 -6q-20 23 -39 42.5t-41 41.5q29 4 52.5 10t45.5 11q10 -16 19.5 -29.5t21.5 -30.5q4 16 6 24.5t6 18.5q37 4 63.5 -9t37.5 -54q20 12 38.5 25.5t38 25.5t41 18t50.5 2q-25 -35 -46.5 -66.5t-44.5 -64.5q27 -12 50.5 -24.5t46.5 -22.5q0 -8 -2 -12 q-25 -6 -49.5 -12.5t-51.5 -12.5q8 -16 14.5 -32.5t16.5 -36.5q-31 20 -58.5 37.5t-56.5 35.5q-10 -27 -20 -48t-21 -46q-16 10 -30.5 17.5t-28.5 13.5q-16 -4 -34.5 -11.5t-31.5 -2.5q-25 10 -54.5 11t-45.5 32q31 16 61.5 33.5t65.5 35.5q-47 20 -90 39t-84 37z" />
<glyph unicode="+" horiz-adv-x="831" d="M0 512q35 12 69.5 16t69.5 3t72 -2t76 3q-4 61 -7.5 119t-7.5 115q-4 92 88 86q47 -2 86 -17.5t84 -50.5q4 -59 10.5 -118.5t10.5 -118.5q2 -27 15.5 -37t35.5 -14q41 -10 84 -21.5t84 -21.5q8 -2 14.5 -4.5t14.5 -4.5q33 -10 30 -43q-2 -23 -16 -27.5t-31 -6.5 q-16 0 -32.5 2t-32.5 2q-37 2 -75 1t-75 -1q-8 -35 -7 -68t3 -65.5t-1 -65.5t-19 -66q-12 2 -24.5 3.5t-24.5 1.5q-76 6 -115 44t-49 115q-4 35 -13.5 70t-19.5 76q-29 -8 -48.5 -12.5t-35.5 -8.5q-35 14 -68.5 26.5t-66.5 29.5q-39 20 -78 61z" />
<glyph unicode="," horiz-adv-x="378" d="M0 -502q23 20 39 34.5t33 29.5q35 33 58.5 67.5t25.5 85.5q0 37 9 74t17 78q18 14 30.5 1t29.5 -20q14 -4 31.5 -1t35.5 6q16 -39 34.5 -79t35.5 -81q-2 -10 -3 -21.5t-5 -23.5q-2 -4 -2 -10.5t-4 -10.5q-31 -25 -60 -52.5t-63 -43.5q-39 -20 -82 -31.5t-90 -7.5 q-16 2 -31.5 2t-38.5 4z" />
<glyph unicode="-" d="M0 571q37 -18 76 -24t76.5 -6t76.5 1t76 -3q76 -10 151.5 -16.5t151.5 -16.5q16 -2 32.5 -8t33.5 -11v-24q-39 -10 -78 -25.5t-80 -13.5q-35 2 -67.5 -3t-64.5 -11.5t-64.5 -11.5t-65.5 -7q-29 -4 -55.5 -3t-48.5 18q-33 23 -66 44t-61 48q-12 10 -15.5 30.5t-7.5 42.5z " />
<glyph unicode="." horiz-adv-x="180" d="M1 -352.5q3 28.5 16.5 52.5t35 46t41.5 45q23 -29 43.5 -52.5t42.5 -49.5q-6 -23 -13 -45.5t-15 -49.5q-18 2 -35 -4t-33 -11t-33.5 -6t-36.5 11q-16 35 -13 63.5z" />
<glyph unicode="/" horiz-adv-x="468" d="M0 -194.5q0 32.5 4 63.5q16 86 30.5 169t35.5 167q25 104 52.5 203.5t51.5 203.5q16 61 27.5 124t23.5 126v6q31 115 71.5 224.5t106.5 218.5q45 -37 57.5 -78t2.5 -88q-8 -29 -13.5 -56.5t5.5 -58.5q2 -8 1 -16t-3 -19q-10 -78 -19.5 -153.5t-23.5 -153.5 q-16 -90 -37 -177t-39 -177q-16 -82 -31.5 -163t-34.5 -161q-16 -66 -35.5 -131t-39.5 -131q-4 -14 -12.5 -26.5t-16.5 -22.5q-14 -18 -26.5 -37.5t-45.5 -9.5q-45 12 -65.5 29.5t-24.5 58.5q-2 33 -2 65.5z" />
<glyph unicode="0" horiz-adv-x="735" d="M1 432.5q3 161.5 46 321.5q18 72 58 135t77 129q14 27 34 40t43.5 17t47 1t47.5 -5q25 -4 48.5 -14.5t52.5 -20.5q-4 -16 -8.5 -26.5t-10.5 -26.5q23 10 40.5 17.5t39.5 17.5q39 -45 79 -88t73 -90q41 -61 58 -129t-3 -144q-4 -14 -2 -20q16 -47 10 -95.5t-14 -95.5 q-10 -63 -24.5 -124.5t-39 -119t-61.5 -107.5t-94 -91q-35 -27 -69 -46.5t-79 -14.5q-59 6 -110.5 28.5t-87.5 69.5q-29 35 -53.5 76t-41.5 84q-59 160 -56 321.5zM229 182q-2 -70 17.5 -130t66.5 -111q31 -35 59.5 -36t65.5 29q31 25 48.5 55.5t31.5 65.5q78 195 94 408 q8 86 -8 162.5t-86 142.5q-14 -23 -29.5 -39t-21.5 -37q-18 -70 -42 -137.5t-65 -128.5q-33 -49 -60.5 -101.5t-55.5 -105.5q-4 -10 -9.5 -18t-5.5 -19zM254 539q20 29 32.5 59.5t35.5 54.5q47 55 68.5 120t39.5 130q4 12 2 28.5t-6 43.5q-147 -211 -172 -436z" />
<glyph unicode="1" horiz-adv-x="454" d="M0 829q70 29 118 79t89 110q16 23 30.5 35t43.5 8q37 -4 72.5 -6t70.5 -6q8 -66 16.5 -123.5t12.5 -114.5q2 -35 0 -72t-9 -71q-20 -96 -42.5 -190.5t-43.5 -190.5q-16 -72 -28.5 -145.5t-28.5 -145.5q-4 -25 -12 -49.5t-15 -48.5q-18 4 -31.5 5t-27.5 3q-35 4 -55.5 10 t-32.5 18.5t-18.5 33t-12.5 55.5q-18 109 -7 214t28 209q10 82 28.5 161t34.5 159q2 10 2 20.5v22.5q-37 -25 -59.5 -36t-41 -9t-35.5 18.5t-46 46.5z" />
<glyph unicode="2" horiz-adv-x="686" d="M2 84q4 25 10 49.5t17 46.5q41 82 82 163t88 159q53 90 113.5 176t121.5 172q41 53 55 100t-2 113q-47 -16 -93 -30.5t-87 -37.5q-16 -10 -30.5 -31.5t-18.5 -41.5q-4 -27 -15.5 -45.5t-35.5 -22.5q-8 -2 -20.5 6t-24.5 21.5t-19.5 29t-7.5 25.5q4 25 9.5 49.5t31.5 38.5 q86 45 174 72.5t187 11.5q45 2 73.5 -33t44 -80t21.5 -89t8 -60q2 -29 -14.5 -76t-44 -103.5t-61.5 -117t-67.5 -114.5t-61 -96t-42.5 -63q-27 -41 -53.5 -78.5t-52.5 -76.5q-25 -39 -48.5 -78t-48.5 -80q51 -6 104.5 -14t106.5 -12q47 -6 91.5 -8.5t91.5 -8.5 q12 -2 25.5 -8t17.5 -16q6 -20 -7.5 -30.5t-29.5 -15.5q-27 -8 -49 -2q-92 20 -183.5 24.5t-185.5 6.5q-82 2 -131 61.5t-39 143.5z" />
<glyph unicode="3" horiz-adv-x="610" d="M0 71q2 38 12 66q16 49 53 66.5t78 25.5q2 -4 4.5 -6t4.5 -6q-10 -10 -21.5 -19.5t-24.5 -19.5q-25 -20 -35 -49t-6.5 -58.5t19.5 -55t45 -40.5q20 -10 47 -14t53.5 1t51 19.5t41.5 43.5q31 57 61.5 112.5t34.5 120.5q2 39 3 76t-5 74q-6 33 -19.5 62.5t-37 50 t-57.5 29.5t-79 1q-25 -4 -49 -5t-47 -5q-6 18 -8 29.5t-2 22.5t3 24.5t9 37.5q41 16 81 35t81 29q57 16 81.5 54t30.5 87q4 41 1 80t-5 80q-23 6 -38 3t-29 -19q-27 -33 -55.5 -63t-57.5 -60q-14 -16 -28.5 -33t-30.5 -37h-43q-18 27 -17.5 51.5t17.5 52.5q39 66 97 109 t124 78q47 23 95 9.5t83 -52.5q76 -86 62 -195q-4 -33 -4.5 -65.5t-8.5 -63.5q-10 -45 -35.5 -79.5t-60.5 -67.5q8 -10 14 -19.5t17 -15.5q82 -61 98 -142t4 -173q0 -4 -12 -43t-31.5 -87.5t-44.5 -93.5t-51 -59q-14 -12 -54 -31.5t-87.5 -37t-95.5 -25.5t-79 2 q-59 20 -90.5 56t-45 75t-11.5 77z" />
<glyph unicode="4" horiz-adv-x="626" d="M4 568q-8 50 14 106q25 61 45.5 123.5t47.5 122.5q16 35 39.5 64.5t46.5 59.5q16 23 34.5 44.5t38.5 48.5q33 -29 60.5 -54.5t54.5 -48.5q-6 -31 -17.5 -44t-31.5 -50q-12 -27 -33.5 -71t-44 -92t-44 -91t-36.5 -68q-25 -55 -20.5 -88.5t25 -51t50 -21.5t54.5 -4 q47 2 61 51q31 94 64.5 187t66.5 186q6 20 10.5 38.5t10.5 40.5q27 14 51 9.5t47 -19.5q10 -6 19.5 -16t7.5 -19q-2 -18 -7.5 -73.5t-12.5 -120t-14 -128t-11 -95.5q-8 -59 -15.5 -118t-27.5 -116q-25 -68 -44.5 -136.5t-39.5 -137.5q-2 -8 -11 -25q-14 -35 -26.5 -68.5 t-28.5 -70.5h-31q-20 4 -32.5 24.5t-12.5 83.5v98.5v127t1 128t1 101.5q-51 10 -101 19.5t-101 17.5q-25 4 -40.5 17.5t-27.5 31.5q-31 47 -39 97z" />
<glyph unicode="5" horiz-adv-x="704" d="M3 98.5q-5 51.5 5 100.5q4 31 19.5 60.5t27.5 57.5q57 -14 71.5 -31.5t8.5 -64.5q-2 -18 -3 -38.5t9 -30.5q18 -23 39 -44.5t56 -31.5q6 -2 19 -1t28.5 3t32 6t28.5 10q49 18 80 57t43 72q8 18 11 55t1 80t-6 89.5t-12 84t-17.5 64.5t-19.5 31q-55 27 -110.5 11.5 t-88.5 -63.5q-8 -12 -12 -16h-49q-23 -2 -32 9.5t-13 29.5q-25 113 -4.5 218.5t73.5 205.5q27 45 67 64.5t93 7.5q35 -8 68 -8.5t67 14.5q33 14 61.5 -5.5t49.5 -62.5q-39 -12 -77 -24.5t-77 -22.5q-14 -4 -28.5 -8t-28.5 0q-33 8 -50.5 -5.5t-25.5 -41.5q-8 -23 -12 -47.5 t-8 -46.5q2 -12 12 -12.5t14 -2.5q98 -10 172 -62t133 -120q29 -35 44.5 -81t25.5 -91q16 -74 15 -147.5t-29 -145.5q-25 -59 -60.5 -106.5t-95.5 -75.5q-31 -16 -56.5 -30.5t-59 -29t-82 -28t-123.5 -27.5q-63 4 -97 42t-63 83t-34 96.5z" />
<glyph unicode="6" horiz-adv-x="550" d="M4 298q-8 83 2 171q25 205 98 399q18 51 47 85t64 54.5t76 28.5t84 11q41 2 71.5 -26t59.5 -63q-27 -16 -48.5 -33.5t-45.5 -27.5q-41 -16 -69 -43t-46 -58.5t-29.5 -66.5t-19.5 -72q-16 -68 -23.5 -136t-17.5 -136q0 -8 1 -15.5t3 -19.5q6 4 24.5 12.5t40 15.5t43 11 t35.5 0q47 -16 90 -34.5t78 -59.5q8 -8 14.5 -16.5t8.5 -18.5q16 -133 -25 -260q0 -4 -8 -12q-35 -41 -89 -71t-111.5 -34t-111 23.5t-89.5 99.5q-16 33 -34 63.5t-32 65.5q-33 80 -41 163zM190 172q0 -25 2.5 -39t5.5 -24.5t6 -21.5t7 -26q6 -33 25.5 -42t48.5 -7 q63 4 106 47t53 113q12 94 -65 123q-74 6 -111 -12.5t-54 -43t-19.5 -46t-4.5 -21.5z" />
<glyph unicode="7" horiz-adv-x="612" d="M0 1030q82 -4 155.5 -9t147.5 -9q43 -2 87 0t87 6q18 0 40 -10.5t42.5 -26.5t33.5 -36.5t17 -39.5q4 -31 -4 -81t-23.5 -109.5t-35 -122t-39 -117.5t-35.5 -99t-24 -65q-14 -35 -33 -67.5t-33 -67.5q-8 -18 -25.5 -57t-37 -80t-38 -79t-26.5 -52q-4 -6 -17.5 -6t-29.5 -2 q-18 6 -28.5 20t-6.5 62.5t26.5 142.5t67.5 262q-31 -4 -50 -4t-36 -2q-49 -4 -69.5 17.5t-18.5 80.5q47 -4 92 -5t88 -5q12 35 35 92t46.5 113.5t42 100.5t24.5 56q10 18 18.5 39t18.5 50q-27 -2 -43.5 -2t-32.5 -5q-31 -6 -80 -6t-98 3t-88 9.5t-45 12.5q-20 20 -36 44.5 t-36 53.5z" />
<glyph unicode="8" horiz-adv-x="534" d="M0 106q25 201 158 336q23 23 43 45.5t43 44.5q35 31 12 74q-27 45 -50.5 90t-49.5 90q-29 49 -45.5 99.5t4.5 109.5q8 23 28.5 43.5t46 34.5t53 19.5t50.5 -2.5q47 -20 85 -38t79 -55q16 -20 22 -52t8 -64.5t1 -60t1 -40.5q8 -80 -26 -153q-18 -41 4 -78 q51 -80 61.5 -168t-0.5 -178q-18 -168 -143 -281q-29 -25 -62.5 -45t-68.5 -22q-47 -4 -93 16t-87 43q-31 16 -49.5 70t-24.5 122zM117 131q-33 -82 20 -176q29 4 46.5 5t43.5 5q41 4 61.5 26.5t28.5 61.5q16 82 10.5 163t-10.5 163q0 4 -5 8t-9 12q-12 -18 -38.5 -55 t-57.5 -78t-56.5 -78.5t-33.5 -56.5zM224 931.5q-3 -22.5 20 -52.5q16 -20 32.5 -40.5t36.5 -47.5q31 23 42.5 56.5t4.5 74.5q-8 37 -33.5 58t-68.5 11q-31 -37 -34 -59.5z" />
<glyph unicode="9" horiz-adv-x="616" d="M5 773q-13 67 9 138q43 131 174 168q41 12 78 6t62 -51q16 -29 35.5 -54t42.5 -54q41 -18 82.5 -37t86.5 -37q37 -16 37 -55q2 -45 2 -119v-145.5t-1 -129t-3 -69.5q-2 -23 -9 -79t-17.5 -120.5t-24.5 -125t-29 -89.5q-10 -20 -16 -39.5t-14 -40.5q-53 4 -77 33t-36 80 q-37 143 -32 285.5t14 285.5q0 10 1 18.5t1 14.5q-53 0 -104.5 -2t-104.5 4q-37 4 -65.5 28.5t-45.5 57.5q-33 61 -46 128zM137 723q16 -47 47 -60.5t68 17.5q27 23 46 50.5t40 53.5q49 59 4 129q-23 4 -40 6.5t-36 2.5q-14 -2 -28.5 -4.5t-24.5 -8.5q-14 -8 -29.5 -30.5 t-28 -51t-18.5 -57.5t0 -47z" />
<glyph unicode=":" horiz-adv-x="352" d="M0 399q45 16 87 36t91 18q33 0 62.5 -14.5t53 -38t39 -53.5t17.5 -62q2 -33 -13 -56.5t-32 -46.5q-16 -23 -36.5 -36t-44 -20t-48 -11t-49.5 -9q-29 -4 -46.5 23t-6.5 61q6 29 1 51.5t-22 45.5q-12 12 -14 24q-10 20 -19.5 42.5t-19.5 45.5zM128 745.5q-1 28.5 1 57.5 q0 12 7.5 23.5t13.5 25.5q35 -14 63.5 -24.5t54.5 -26.5q35 -23 55.5 -54.5t20.5 -74.5q2 -29 -10 -42.5t-43 -23.5q-41 -16 -68.5 -6t-56.5 29q-12 8 -20.5 25.5t-10.5 33.5q-6 29 -7 57.5z" />
<glyph unicode=";" horiz-adv-x="223" d="M8 604.5q-14 22.5 0 57.5q4 12 4 24t2 24.5t9.5 23.5t25.5 20q16 8 25.5 31t23.5 46q31 -2 49.5 -15t30.5 -33.5t20.5 -43t16.5 -43.5q10 -27 4 -46t-21.5 -36.5t-34 -35t-30.5 -37.5q-20 16 -39.5 30.5t-42.5 -12.5q-29 23 -43 45.5zM10 197q35 18 48.5 42.5t7.5 71.5 q-2 18 -3.5 39t4 42.5t19.5 41t43 31.5q16 -14 34.5 -28.5t35.5 -33.5q43 -49 8 -104q-10 -16 -12 -38.5t-7 -45.5q-6 -78 -59 -86q-47 -6 -74 9.5t-45 58.5z" />
<glyph unicode="&#x3c;" horiz-adv-x="569" d="M2 559q-6 29 6 54.5t37 48.5q74 63 146.5 127.5t144.5 130.5q31 29 55.5 44t49 22t49 7t55.5 -2q4 -23 10 -43t10 -43q6 -35 0 -64.5t-47 -45.5q-16 -4 -22 -15q-29 -53 -65 -98t-76 -90t-82 -89t-80 -93q72 -74 144.5 -147t147.5 -148q-33 -16 -57.5 -18.5t-52.5 18.5 q-199 131 -330 319q-18 27 -27.5 59.5t-15.5 65.5z" />
<glyph unicode="=" horiz-adv-x="708" d="M6 455q90 2 179 5t177.5 -1t175.5 -19.5t171 -50.5v-14q-10 -4 -18.5 -8.5t-18.5 -6.5q-39 -6 -78 -11t-78 -15q-90 -25 -178 -32t-180 -3q-8 0 -14.5 2t-14.5 2q-86 0 -112.5 32t-10.5 120zM18 614q10 16 17.5 27.5t11.5 20.5q16 -4 32.5 -11.5t33.5 -5.5q90 8 177 0 t177 -18q55 -6 111.5 -10.5t115.5 -10.5q-16 -23 -38.5 -27t-45.5 -10q-14 -4 -28.5 -4t-28.5 -4q-47 -16 -95 -23.5t-96.5 -10.5t-96.5 -5t-95 -8q-61 -8 -98.5 17.5t-53.5 82.5z" />
<glyph unicode="&#x3e;" horiz-adv-x="546" d="M0 92q0 61 13.5 121.5t45.5 118.5q45 76 88 151.5t89 151.5q20 35 21 65.5t-32 61.5q-23 25 -41 53.5t-43 50.5q-33 29 -47 63t-10 87q27 -16 50.5 -26.5t39.5 -26.5q88 -92 174 -185.5t174 -187.5q23 -25 24 -51.5t-16 -55.5q-43 -80 -88 -157.5t-118 -137.5 q-10 -8 -15.5 -21t-15.5 -22q-16 -12 -31.5 -28.5t-32 -27.5t-38 -14t-50.5 7q-16 6 -32.5 2t-34 -8t-37 -2t-37.5 18z" />
<glyph unicode="?" horiz-adv-x="624" d="M0 1145q41 68 89 124t126 89q66 29 130.5 23.5t125.5 -29.5q29 -12 48.5 -44t39.5 -61q43 -53 48 -114.5t3 -122.5v-32.5t4 -33.5q16 -41 7 -80t-23 -73q-20 -53 -52 -98.5t-65 -90.5q-29 -37 -57.5 -73.5t-40.5 -77.5q-10 -35 -25.5 -67t-23.5 -67q-10 -35 -20.5 -70.5 t-20.5 -70.5q-18 -63 -55 -89t-115 -30q-10 43 -22.5 84t-20.5 84q-10 53 -15.5 107.5t-11.5 109.5q-16 123 22 229.5t113 205.5q35 43 67 89t54 99q41 98 31 223q-51 -18 -85 -51t-62 -68q-47 -59 -86 -65t-107 41zM45 -303q2 20 7 39.5t7 40.5q2 20 1 41.5t-1 48.5 q29 -31 55.5 -31t55.5 14q23 12 55 9q20 0 33 -17q12 -25 21.5 -49t19.5 -49q8 -20 2 -31q-18 -29 -28.5 -61.5t-36.5 -54.5q-18 -16 -34 -18.5t-36 9.5q-27 18 -53.5 35t-53.5 35q-8 4 -12 16.5t-2 22.5zM170 -180q0 -4 1 -6t1 -4h35q0 4 -1 7t-1 7q-10 -2 -17.5 -3 t-17.5 -1z" />
<glyph unicode="@" horiz-adv-x="1765" d="M6 446q-27 254 111 476q4 4 8 9t4 9q-12 49 25 92q41 51 80.5 103.5t95.5 89.5q20 10 42.5 17t45.5 11q41 6 81 10.5t81 14.5q86 20 171 29.5t173 -9.5q63 -14 128.5 -16t131.5 -8q78 -8 145.5 -35t124.5 -82q58 -59 148 -57q-4 -27 -5.5 -43.5t3 -26.5t16.5 -18t35 -19 q31 -16 43 -37.5t20 -50.5q12 -47 25.5 -93t25.5 -95q-6 -8 -16 -17.5t-16 -21.5q-6 -10 -10.5 -25.5t-0.5 -25.5q20 -53 4 -97.5t-32 -89.5q-4 -8 -12.5 -16t-6.5 -14q8 -27 3 -49.5t-15 -43t-24.5 -39t-26.5 -38.5q-8 -16 -10 -25q-23 -68 -69 -110t-108 -68 q-23 -10 -45 -22.5t-47 -18.5q-86 -25 -155.5 4t-122.5 92q-41 51 -73 110.5t-67 119.5q-8 12 -14 27.5t-14 33.5q-16 -10 -32.5 -16.5t-27.5 -16.5q-25 -29 -58.5 -35t-66.5 -14q-16 -4 -34.5 1t-32.5 15q-53 35 -86 86.5t-49 112.5q-10 39 -3 74t23 74q33 76 91.5 120.5 t121.5 85.5q35 23 70 19t67 -25q20 -12 40 -15t42 -3q33 2 66 0t63 -8q33 -6 44.5 -20.5t9.5 -49.5q-4 -78 -9.5 -155.5t-5.5 -155.5q0 -59 6.5 -116.5t16.5 -117.5q6 -31 32.5 -55.5t61.5 -35.5t73 -9t66 22q80 59 139.5 132t77.5 176q10 57 19.5 113.5t1.5 115.5 q-12 86 -45 156.5t-107 119.5q-16 47 -55 70t-74 51q-25 18 -49 34.5t-55 25.5q-16 4 -28.5 13t-29.5 17q-23 10 -44 20.5t-50 0.5q-4 -2 -10 -3t-10 3q-33 12 -67 15t-66.5 2t-66.5 -2t-66 3q-33 4 -56 -12q-53 -39 -109.5 -75t-97.5 -83q-35 -41 -68.5 -89t-37.5 -111 q-2 -10 -7 -19.5t-12 -19.5q-16 -35 -33.5 -68t-9.5 -74q2 -10 -3 -20t-9 -21q-23 -47 -36 -93t10 -97q4 -6 3 -14.5t-3 -14.5q-25 -84 -16 -164.5t18 -162.5q4 -49 31.5 -90t68.5 -70q47 -35 93 -65.5t95 -59.5q41 -23 87 -33t94 8q14 4 20 2q20 -16 43 -21t46.5 -7t47 -5 t45.5 -16q-2 -4 -4 -12t-6 -8q-27 -6 -51.5 -15.5t-51 -16.5t-53 -11t-55.5 2q-33 6 -66.5 1t-68.5 -1q-68 4 -129 18q-143 35 -246.5 119t-163.5 221q-39 92 -65.5 184.5t-22.5 194.5q0 14 -2 28.5t-4 28.5zM72 436q4 -2 14 -2q0 14 -1 27.5t-1 25.5h-12v-51zM126.5 890 q-7.5 -13 10.5 -32l13 55q-16 -10 -23.5 -23zM217 -129q10 -10 21.5 -22.5t21.5 -24.5q2 4 4 5t4 5q-10 12 -19.5 24.5t-19.5 24.5zM621 494q-6 -47 32 -74q20 -16 41 -9t37 23q20 18 38.5 39t33.5 43q29 47 52.5 95t47.5 96q6 12 8.5 26.5t6.5 30.5q-27 16 -45.5 15 t-36.5 -17q-23 -18 -46.5 -33.5t-44.5 -38.5q-41 -43 -78.5 -87t-45.5 -109z" />
<glyph unicode="A" horiz-adv-x="1366" d="M16 537q29 156 58.5 310t62.5 308q16 74 37 146.5t41 144.5q2 8 10 24.5t18.5 32t19.5 26.5t16 11q9 1 19 1h10q16 -1 30 -7q72 -29 129 -72t88 -116q18 -41 33.5 -85t32.5 -87q23 -53 45 -107.5t45 -110.5q2 -4 14 -31.5t25.5 -58t25.5 -57.5t15 -29q8 -16 30.5 -65 t53 -117t64.5 -140.5t64.5 -136t54 -104.5t36.5 -45q10 -4 27.5 17.5t35.5 50.5q22 32 45 73q33 88 62.5 178.5t40.5 143.5q2 16 12 23.5t21.5 6.5t19.5 -11q6 -8 6 -19v-6v-2q-2 -18 -18.5 -76.5t-45 -132.5t-67.5 -152t-86 -135q-29 -47 -72 -52q-9 -1 -18 -1 q-35 0 -71 16q-46 20 -88 56t-67 75q-51 78 -93 161t-72 173q-2 4 -4.5 8t-6.5 11q-8 -4 -30.5 -12.5t-50 -16.5t-54 -14.5t-41.5 -6.5q-37 0 -55 -2t-27.5 -10t-14.5 -26.5t-17 -51.5q-41 -92 -76 -155.5t-62.5 -105.5t-49 -66.5t-34.5 -40.5q-6 -8 -13 -14.5t-15 -12.5 q-12 -10 -25 -10q-5 0 -10 1q-19 5 -25 23q-6 16 -11 34t-9 34q-33 124 -33 249q0 81 14 163zM412 690q0 -14 9 -25.5t25 -11.5q25 -4 49.5 -5t51.5 -5h5q20 -1 30 15q7 10 7 20q0 9 -5 18q-23 45 -39.5 91.5t-32.5 92.5t-36.5 89t-49.5 84q-4 -90 -7 -180.5t-7 -182.5z" />
<glyph unicode="B" horiz-adv-x="1320" d="M0 1501q2 23 20 34q11 6 22 6q8 0 17 -3q51 -16 91 -33q41 -16 68.5 -44.5t39.5 -78.5q14 8 26.5 14.5t24.5 12.5q49 33 102.5 47t110.5 17q51 0 93 -30t65 -75q14 -31 22 -91q7 -49 8 -106q0 -13 -1 -27q-2 -73 -14.5 -145.5t-39.5 -128.5q66 -2 102 -34.5t64 -77.5 q16 -29 37 -53.5t39 -47.5q78 12 153.5 23.5t153.5 21.5q33 4 63.5 0t53.5 -32q-14 -31 -41 -33q-78 -10 -153.5 -22.5t-153.5 -22.5q-31 -4 -41 -18.5t2 -49.5q4 -14 2 -54t-12.5 -93t-27.5 -113.5t-44 -113.5q-14 -31 -52 -60t-90 -46q-51 -16 -112 -22q-16 -1 -33 -2 q-45 0 -90 11q-105 33 -105 116q0 30 13 66q10 31 25 51q47 70 97 133.5t122 112.5q27 18 42 31.5t19 27t-1 33t-17 51.5q-18 45 -41 95q-8 14 -33 18t-57.5 -4t-69.5 -25.5t-68 -46.5q-4 -16 -4 -20q-10 -74 -16 -133.5t-12 -124.5q-4 -23 -6.5 -69t-3.5 -93t-3 -85t-2 -44 q0 -10 -3 -39t-9 -31l-64 -8q-7 -1 -15 -1q-25 0 -52 11q-33 16 -51.5 41t-30.5 58q-29 72 -40 145.5t-19 146.5q-8 55 -11.5 110.5t-7.5 111.5q-3 31 -3 61v15v26q0 25 -1 51q-4 90 -9 177t-13 178q-4 53 -9.5 105t-9.5 105q-6 58 -6 117zM319 1235q4 -27 2 -52.5t3 -54.5 q8 -53 13 -108t13 -109q4 -31 11.5 -62.5t13.5 -66.5q10 10 18 14.5t13 10.5q84 113 114 244q8 31 12.5 61.5t8.5 61.5q2 21 2 41q0 25 -3 50q-5 44 -16 87q-11 44 -39 44q-14 0 -32 -10q-31 -18 -59.5 -40.5t-55.5 -45.5q-20 -20 -20 -53q0 -6 1 -12zM426 172 q-6 -18 -6 -32q0 -43 55 -56q15 -4 34 -4q9 0 19 1q30 3 57 13t50.5 26.5t36.5 37.5q4 8 12 37.5t15.5 66.5t12.5 72q4 25 4 43q0 7 -1 14l-4 32t-6 36q-23 -16 -43.5 -27.5t-36.5 -28.5q-29 -25 -54.5 -50t-54.5 -50q-61 -57 -90 -131z" />
<glyph unicode="C" horiz-adv-x="763" d="M0 622q-1 10 -1 21q0 20 3 39q4 61 10 122.5t17 123.5q12 72 28.5 140.5t32.5 137.5q8 31 18.5 60.5t26.5 54.5q14 23 34.5 39t43.5 33q18 16 45 24q26 7 52 11q20 3 37 3h9q20 -1 27 -1q72 -6 103.5 -53.5t48.5 -106.5q8 -33 20 -76l-22.5 -22.5t-15.5 -10.5t-16 0 t-26 6q-10 33 -19.5 61.5t-19.5 57.5q-4 8 -11 14.5t-13 4.5q-6 0 -14.5 -6.5t-10.5 -14.5q-4 -16 -11 -51t-15.5 -77t-16.5 -82t-14 -66q-10 -55 -21.5 -131t-19.5 -179q-9 -102 -13 -233q-2 -51 -1 -108q0 -88 4 -187q2 -39 13 -61.5t24.5 -35t26.5 -17.5t19 -9 q39 4 72 44t58 79q27 43 50 87t44 91q41 102 73.5 176t55.5 115q10 18 29.5 14t19.5 -24q0 -23 -14 -45q-8 -12 -30 -63.5t-45.5 -111t-46 -114.5t-30.5 -76q-20 -47 -53 -91t-68 -79q-23 -23 -43 -37t-59 -28q-31 -11 -63 -11q-16 0 -32 3q-48 8 -92 32q-70 37 -110 109 q-20 37 -34.5 104.5t-24 138t-13.5 129t-4 74.5q0 29 -2 59z" />
<glyph unicode="D" horiz-adv-x="1200" d="M0 1442q23 -2 43 0h10q15 0 31 -4q35 -12 68.5 -28.5t68.5 -33.5q27 -12 38 -30.5t14 -38t5.5 -37t14.5 -27.5q6 4 13 6t13 6q72 47 149 55q21 2 42 3q57 0 115 -17q14 -4 27.5 -5t25.5 -7q49 -16 87 -62t64.5 -108.5t42.5 -133.5q17 -72 24 -134q6 -55 6 -96v-12 q-1 -46 -7 -60q37 8 90 10q15 1 30 1q37 0 71 -4q48 -5 81 -17.5t31 -30.5q-2 -2 -26.5 -3t-28.5 -3q-37 -4 -73 -6t-73 -4q-59 -4 -80.5 -29t-29.5 -84q-16 -117 -49 -203t-69 -146.5t-67.5 -96t-46.5 -48.5q-33 -30 -65 -32h-9q-28 0 -61 12q-37 12 -56.5 36.5t-29.5 61.5 q-9 33 -9 65q0 66 38 128q2 6 31.5 37.5t63.5 73.5t61.5 87t27.5 76q-4 117 -29.5 228.5t-54.5 222.5q-8 29 -14 59.5t-14 60.5q-4 12 -8.5 29t-10.5 31t-13 23.5t-20 5.5q-37 -25 -62.5 -70t-40.5 -92t-21.5 -89t-6.5 -57q0 -18 2 -78.5t5 -140.5t5.5 -169t5.5 -165.5 t5 -130t2 -59.5q4 -39 8 -77t8 -79q2 -43 -41 -65q-36 -19 -74 -31q-28 -9 -59 -9q-11 0 -22 1q-41 4 -64.5 23.5t-28.5 60.5q-8 53 -13 107.5t-9 107.5q-10 96 -17.5 189t-15.5 188q-4 55 -5 110.5t-5 110.5q-4 92 -9 180t-12 180q-4 68 -9 136.5t-9 140.5zM492 125 q-1 -5 -1 -10q0 -13 4 -27q5 -18 11 -35q6 -16 20 -20q4 -1 9 -1q10 0 20 5q41 18 71.5 61t35.5 103q2 35 4 73v6q0 35 -15 76q-43 -37 -73.5 -74.5t-55.5 -78.5q-10 -16 -18 -37t-12 -41z" />
<glyph unicode="E" horiz-adv-x="1101" d="M1 394q3 46 15 89q12 33 21.5 57.5t19 48t18.5 49.5t23 56q18 41 44 78t53 74q18 27 39.5 50.5t46.5 51.5q-6 12 -13.5 28.5t-15.5 33.5q-14 29 -23.5 59.5t-11.5 63.5v11q0 26 7 56q9 36 26.5 71.5t43 64t56.5 42.5q55 31 107.5 43.5t96.5 13.5h12q37 1 64 -5 q32 -6 44 -13q41 -23 81 -48.5t60 -74.5q11 -28 11 -54q0 -16 -4 -30q-11 -39 -52 -65q-31 -18 -48 -22.5t-46 7.5q-18 8 -26.5 27t-2.5 39q2 2 2 4t2 4v6q1 38 -25 60q-28 24 -65 30q-10 1 -19 1q-28 1 -54 -11q-36 -16 -48 -51q0 -27 -1 -53.5t1 -52.5q2 -29 11.5 -65 t28 -67.5t46 -57t66.5 -36.5q23 -4 44 -14t42 -21q27 -12 27 -29.5t-25 -31.5q-18 -10 -37.5 -17.5t-44.5 1.5q-20 4 -40.5 4t-41.5 4q-9 1 -18 1q-28 0 -46 -10q-22 -14 -34 -55q-6 -25 -20.5 -68.5t-29 -88.5t-26.5 -82t-14 -47q-16 -61 -24.5 -123t-12.5 -125 q-1 -9 -1 -19q0 -34 12 -64q15 -38 44 -69q4 -8 19.5 -12t27.5 -4h9q116 0 223 51q115 53 198.5 140t130.5 194q25 59 47.5 122.5t38.5 127.5q1 2 9 2q27 -4 41 -26q11 -17 11 -36q0 -6 -1 -12q-12 -80 -46 -165t-73 -158.5t-76 -128t-55 -72.5q-27 -31 -47.5 -51.5t-39 -34 t-37.5 -22.5t-42 -17q-78 -31 -142 -42q-42 -7 -92 -7q-27 0 -57 2q-150 8 -260 104q-37 33 -59.5 73t-38.5 85q-10 25 -19.5 61.5t-13.5 78.5q-2 24 -2 49q0 19 1 39z" />
<glyph unicode="F" horiz-adv-x="1030" d="M2 662v90t1 130.5t3 150.5t3 150.5t2 129t3 86.5q0 2 6 18q12 2 26 5q6 1 13 1q8 0 17 -2q39 -8 79 -15t76 -24q91 -35 181 -54q59 -12 121 -12q33 0 67 3q66 6 132 11q18 1 35 1q49 0 97 -10q35 -6 68 -16.5t65 -20.5q10 -4 17.5 -11t15.5 -13q-16 -39 -47 -49.5 t-63 -16.5q-37 -8 -74 -13t-74 -16q-52 -12 -103 -12q-15 0 -31 1q-66 5 -134 15q-37 6 -73 13.5t-71 15.5q-14 -16 -20 -59t-6 -94.5t3 -99.5t7 -73q0 -2 12 -10q65 11 131 11q19 0 38 -1q85 -4 173 -20q-2 -41 -34 -64q-51 -31 -105.5 -43t-114.5 -16q-18 -2 -37.5 -2 t-39.5 -2q0 -10 -1 -16.5t1 -12.5q21 -72 21 -145v-15q-2 -80 -9 -163q0 -10 -2 -46t-7 -84t-14.5 -103.5t-25 -101.5t-37 -77t-51.5 -33q-10 0 -20.5 -1t-20.5 -1q-154 16 -174 191q-2 8 -4.5 39.5t-3.5 71.5t-3 80t-2 65z" />
<glyph unicode="G" horiz-adv-x="942" d="M2 453v69t1 63.5t1 35.5q4 23 7 47t7 47q4 18 10.5 44.5t12.5 43.5q27 80 63.5 155.5t90.5 141.5q39 49 71 96q45 63 105.5 103t132.5 67q61 23 122 32q14 2 28 2q48 0 98 -22q6 -4 28.5 -15t45 -29.5t40 -42t15.5 -50.5l-2 -2q-18 -6 -33 -4t-27 10t-22.5 18.5 t-22.5 16.5q-35 23 -55.5 25t-50.5 -23q-25 -23 -50.5 -43t-48.5 -43q-6 -6 -23.5 -28.5t-37 -55.5t-39.5 -73t-33 -81q-10 -41 -29.5 -77.5t-31.5 -77.5q-20 -63 -35.5 -127t-34.5 -129q-10 -42 -10 -86q0 -16 1 -31q5 -61 19.5 -114.5t35 -96.5t38.5 -63q29 -35 63 -37h12 q30 0 62 8q74 23 115 84q29 41 51.5 83t44.5 83q12 23 22.5 47.5t20.5 50.5q6 6 -2 6q-51 10 -100 19.5t-98 19.5q-76 14 -138 62q-18 12 -16 33.5t23 31.5q23 10 45 20.5t45 20.5t47 6q35 -6 69.5 -14t69.5 -18q45 -14 87 -31t89 -33l2 -2q35 -25 38 -58q1 -7 1 -15 q0 -28 -8 -64q-16 -76 -34.5 -149.5t-57.5 -145.5q-25 -47 -57.5 -75t-73.5 -56q-35 -25 -72 -38t-74 -30q-39 -16 -76 -16q-26 0 -51 9q-59 19 -114 54q-29 18 -55.5 37t-53.5 39q-80 59 -136 135t-73 176q-4 20 -4 54z" />
<glyph unicode="H" horiz-adv-x="1228" d="M1 236q3 74 11 151q2 31 5 61.5t8 61.5q6 66 12 129t10 129q6 80 6 160q1 57 1 115v57q-1 86 -1 172q0 8 1 30.5t6.5 44t12.5 37.5q6 15 16 15h3q70 -10 123 -44t94 -85q23 -27 34 -63t19 -70q12 -67 20 -131q4 -30 4 -60q0 -36 -5 -72q-8 -49 -11 -98t-5 -98 q0 -29 4 -59.5t8 -71.5q33 16 60.5 27.5t51.5 27.5q29 18 54.5 40t52.5 44q8 6 11 18.5t5 22.5q10 63 17.5 125.5t17.5 126.5q4 31 11.5 62.5t13.5 64.5l12 78t16 80q2 8 6.5 17t10.5 11q41 8 81 8t79 -22q43 -27 59 -70q23 -61 39 -124.5t16 -129.5q0 -18 -7 -60 t-19.5 -96.5t-26.5 -112.5t-26.5 -108.5t-20.5 -86t-8 -41.5q82 59 156.5 121.5t166.5 103.5q22 -31 22 -45t-36 -39q-45 -29 -90 -58.5t-86 -64.5q-37 -35 -69 -74t-66 -76q-12 -16 -25.5 -30.5t-24.5 -30.5q-23 -33 -37 -80t-30 -100q-27 0 -49.5 -3t-42.5 1 q-57 16 -81 47t-28 94v31.5t2 32.5q4 31 10.5 75.5t12.5 87.5t8 77t-2 44q-55 -8 -98 -35.5t-90 -50.5q-6 -4 -17.5 -53t-25 -113.5t-26.5 -131t-26 -105.5q-14 -43 -36.5 -73t-65.5 -42q-23 -6 -43.5 -13t-42.5 -16q-11 -4 -21 -4q-25 0 -45 25q-23 31 -34 64.5t-15 70.5 q-8 58 -8 116q0 17 1 34z" />
<glyph unicode="I" horiz-adv-x="583" d="M0 23q0 27 12.5 40t30.5 18t38.5 6t37.5 3q-1 10 -1 30q0 30 2 81q3 86 8 201.5t11 245.5t13.5 245t14.5 199t13 108q4 10 4 19.5v13.5q-43 29 -84 54.5t-86 53.5q26 19 48 21q6 1 13 0q15 0 31 -4q78 -18 154 -36.5t154 -41.5q23 -6 42 -19.5t40 -25.5q6 -4 11 -14.5 t1 -14.5q-8 -18 -27 -22q-20 -4 -39.5 -4h-40.5q2 -20 8.5 -92t11.5 -171.5t11 -211t11.5 -210t9.5 -171t4 -93.5q0 -31 -3.5 -61.5t-7.5 -67.5q16 -14 36 -13t42 -3q40 -4 52 -24q5 -9 6 -24q0 -17 -7 -42q-25 -2 -49 -5t-49 -3q-35 -1 -71 -1h-36q-54 1 -108 3 q-12 0 -23.5 3t-21.5 7q-23 4 -46.5 7t-47.5 7q-29 4 -58.5 5t-64.5 4z" />
<glyph unicode="J" horiz-adv-x="933" d="M0 1281v19q4 18 8 38t8 42q10 2 21.5 3t23.5 1q47 -4 96.5 -10t96.5 -10q25 -3 49 -3l25 1h18q28 0 55 -4q33 -4 63 -17.5t60 -25.5q4 -2 7.5 -10.5t5.5 -14.5q4 -23 5 -45t7 -45q8 -31 21.5 -101.5t27.5 -152.5t24.5 -159.5t14.5 -124.5q74 2 147 10q36 4 73.5 4 t76.5 -4q-6 -27 -16.5 -37t-32.5 -14q-45 -10 -89 -20.5t-89 -20.5q-23 -6 -35.5 -11.5t-18.5 -13.5t-7 -22.5t-1 -36.5q0 -82 -20.5 -154t-47 -126t-50 -88t-27.5 -38q-35 -47 -84 -73.5t-103 -45.5q-10 -4 -39 -8q-8 -1 -18 -1q-22 0 -50 6q-40 9 -84 38t-85 92 q-17 30 -17 65q0 31 11 60q4 14 8 26.5t8 26.5q16 53 46 94.5t71 75.5q57 47 119 89q10 8 16 15t6 21q2 43 6 121t8.5 159t7.5 147.5t5 86.5q4 35 5 71t5 77q-38 13 -73 13h-5q-37 -1 -76 -5q-20 -2 -51 0t-59.5 5t-50 7t-23.5 9q-4 10 -4 19zM109 118q2 -22 12 -38 q16 -33 46 -46.5t64 -19.5q6 -1 12 -1q43 0 54 53q10 47 19 95q7 34 7 67q0 14 -1 28q-4 49 -7.5 95t-3.5 95q-18 -6 -49 -35.5t-61.5 -70.5t-56 -89t-33.5 -93q-3 -12 -3 -26q0 -7 1 -14z" />
<glyph unicode="K" horiz-adv-x="1476" d="M4 152q-4 71 -4 141q0 151 18 297q4 38 4 76q0 18 -1 38q-3 58 -3 115q0 35 -1 72t-1 72q-2 59 -3 117.5t-1 117.5v182q0 -2 6 2q31 25 44.5 35t23.5 10t24.5 -9t47.5 -23q61 -29 109 -74t95 -92q41 -41 55.5 -95.5t28.5 -107.5q2 -6 2 -46t2.5 -87t7.5 -89t15 -50l86 90 t88 90q39 35 79 69.5t79 69.5q8 6 32.5 26.5t54.5 44t59.5 43t49.5 23.5q29 6 39 -18q8 -20 3 -44t-21 -38q-14 -10 -52 -49t-81 -82t-81 -82t-52 -49q-12 -10 -50 -54t-81 -95.5t-81 -96.5t-48 -59q16 -29 28.5 -57.5t32.5 -51.5q53 -53 118.5 -91t137.5 -62 q37 -12 74 -22.5t78 -10.5q82 4 141 47q27 20 74 64t94 91.5t83 90.5t40 63q4 10 5 17.5t5 17.5q6 14 20.5 18.5t24.5 -6.5q23 -19 23 -47q0 -22 -15 -49q-16 -29 -37.5 -55.5t-40.5 -55.5q-6 -8 -40.5 -43.5t-75.5 -76.5t-76 -75t-41 -38q-43 -29 -83 -48.5t-110 -21.5 q-31 4 -59.5 10.5t-56.5 16.5q-47 14 -108.5 47t-119 65.5t-100.5 59.5t-49 31q0 -12 -16.5 -70.5t-37 -128.5t-39 -129t-24.5 -72q-20 -39 -52 -48t-67 -13q-12 -2 -23 -2q-38 0 -67 22q-37 28 -71 58q-35 33 -47.5 74.5t-14.5 89.5z" />
<glyph unicode="L" horiz-adv-x="843" d="M4 395q6 68 11 117t13.5 94t19.5 94.5t30 114.5q18 74 36.5 146.5t41.5 144.5q14 45 29.5 89t37.5 85q33 59 88.5 99t126.5 42q4 0 9 1l27 -5q18 -6 34 -12q29 -10 24 -41q0 -6 -4 -68.5t-19 -145.5t-46 -169t-88 -137q-8 -8 -10.5 -23.5t-2.5 -29.5q-2 -35 -7 -71 t-9 -65t-9 -58.5t-9 -57.5q-2 -20 -6.5 -63.5t-9.5 -97.5t-10 -113.5t-9 -111t-6 -88t-2 -45.5q2 -10 4 -22t12 -23q43 2 77 20.5t62 45.5q41 37 77 85t63.5 93t45 80t23.5 41q18 27 38 68t39 86t34.5 92t25.5 86q4 12 14.5 18t22.5 2q22 -6 22 -24q0 -6 -3 -13 q-12 -35 -35 -94t-47.5 -119.5t-46 -113t-33.5 -74.5q-10 -20 -27.5 -54t-41 -72t-53.5 -77t-66 -69q-33 -29 -73 -47.5t-83 -25.5q-23 -4 -46 -4l-40 3q-43 6 -80 26q-53 29 -87 73t-50 102q-23 69 -28 141q-3 40 -3 80q0 33 2 65zM354 1000q2 -20 2 -39q4 -2 6.5 -2.5 t6.5 -2.5q6 14 15 27.5t11 28.5q17 78 31 154q30 158 29 159q-1 9 -7 15q-8 8 -12 18q-12 -18 -24.5 -61.5t-22.5 -93.5t-19.5 -96t-13.5 -69q-3 -12 -3 -25q0 -6 1 -13z" />
<glyph unicode="M" horiz-adv-x="1751" d="M6 121q-6 52 -6 105q0 108 25 218q16 76 23 154t15 156q10 92 20.5 182t20.5 182q2 16 8.5 45t15.5 64t18.5 70.5t17.5 64.5t32 45q21 14 46 14h6h12q8 0 16.5 -3t12.5 -9q16 -29 38.5 -46t43.5 -40q20 -23 38.5 -45.5t34.5 -48.5q18 -29 33 -57.5t27 -59.5 q27 -66 50.5 -130t47.5 -134q8 4 15.5 7t15.5 7q51 37 90 84t70 103q23 41 44 78.5t44 78.5q10 23 19 47.5t20 49.5q10 29 21 40t46 11q47 -2 91 -8.5t91 -14.5q10 -2 22.5 -12t18.5 -21q29 -53 46.5 -107t19.5 -116q0 -104 -8 -208.5t-15 -209.5q-4 -55 -13 -109t-21 -108 q-8 -31 -18.5 -60.5t-16.5 -60.5q-12 -57 -22 -113q-9 -47 -9 -97v-19q2 -39 17.5 -53t52.5 -4q90 23 147 94q-2 -4 29 36t75 102.5t90 136t76 141.5q14 33 34 61.5t38 57.5q20 4 30 -4q8 -5 8 -18q0 -5 -1 -11q-4 -20 -21.5 -60.5t-43 -89.5t-56.5 -103t-60.5 -101.5 t-55 -85t-39.5 -54.5q-23 -25 -37.5 -47t-30.5 -35q-23 -23 -46.5 -43t-51.5 -37q-49 -31 -101 -43q-15 -3 -30 -3q-39 0 -82 22q-84 45 -127 114.5t-60 157.5q-14 78 -14 154q0 31 2 61q8 106 18 215q7 78 15 156q3 30 3 61q0 50 -7 105q-37 -47 -68 -89t-63 -81 q-23 -27 -47.5 -51.5t-51.5 -46.5q-23 -20 -43 -19.5t-49 21.5q-41 31 -81 61.5t-87 65.5q-4 -29 -7 -54.5t-7 -52.5q-2 -12 -13.5 -63.5t-28 -122t-34.5 -149.5t-34.5 -147.5t-28 -115.5t-11.5 -53q-16 -76 -53 -127q-15 -21 -37 -29q-13 -5 -27 -4q-10 0 -20 2 q-35 10 -56.5 23.5t-34.5 37t-21.5 57.5t-14.5 85z" />
<glyph unicode="N" horiz-adv-x="1497" d="M0 457q0 80 2 159.5t6 157.5q8 123 16.5 244t16.5 244q2 20 3 40.5t3 43.5q1 25 21 39q12 9 28 9q8 0 17 -3q49 -12 98 -31q10 -4 36.5 -38t61.5 -86t75 -115.5t74 -125t59.5 -116t33.5 -86.5q6 -29 20.5 -54.5t26.5 -54.5q29 -66 58.5 -131.5t64.5 -128.5 q10 -16 19.5 -29.5t19.5 -27.5q12 4 16 8v79.5t1 146.5t3 163t6 131q0 10 1 44t2.5 79t2.5 96t2 96t3 79t6 46q8 23 26 29q14 6 27.5 9t30.5 7q18 4 30.5 -3t22.5 -23q41 -74 56.5 -153t25.5 -163q8 -78 15 -156.5t36 -154.5q10 -29 23.5 -59.5t33.5 -55.5t51 -31t62 5 q35 10 69.5 24.5t69.5 30.5q12 6 41 13.5t52 4.5q12 0 18 -12q3 -6 3 -11.5t-3 -10.5q-18 -29 -59 -51.5t-91 -38.5q-59 -19 -117 -27q-13 -2 -26 -1q-44 0 -90 21q-2 -41 -3 -76.5t-3 -70.5q0 -23 -8.5 -72t-20.5 -107.5t-26.5 -117.5t-28.5 -102q-10 -30 -36 -42 q-14 -7 -28 -6q-13 0 -26 5q-29 10 -59.5 15t-53.5 26q-12 10 -29.5 41.5t-36 70.5t-38 78t-35.5 68q-43 70 -87 138t-89 138q-16 23 -34.5 58.5t-31.5 64.5q-10 23 -20 45.5t-25 52.5q-12 -29 -11 -50t1 -42q0 -10 1 -50t1 -83v-113q0 -2 -1 -38.5t-3 -88t-9.5 -106.5 t-19.5 -94q-23 -72 -76 -96q-37 -16 -77 -16q-17 0 -35 3q-16 4 -29.5 9t-28.5 12q-51 20 -69.5 59t-20.5 90q-4 82 -9 163t-5 163z" />
<glyph unicode="O" horiz-adv-x="1273" d="M8 393q-8 51 -8 100q0 55 10 107q18 100 49 199q35 104 75 203.5t102 191.5q23 35 49 66.5t53 64.5q18 23 41.5 33t50.5 20q55 20 111.5 26.5t115.5 6.5q8 0 16.5 -3t18.5 -7q6 -23 6 -46q0 -31 -11 -59q-19 -50 -40 -100h37q8 1 16 1q33 1 61 -13q34 -16 62 -43 q8 -10 13 -19q6 -23 18 -58.5t24 -101.5q11 -64 17 -166q3 -51 3 -114.5t-3 -138.5q24 -10 47 -10q8 0 16 1q30 5 60 19q47 23 91 44t89 50q30 20 48 20q14 0 22 -12q7 -11 7 -22q0 -7 -2 -13q-5 -18 -26 -28q-29 -16 -68.5 -35.5t-81.5 -36t-81 -29t-64 -14.5 q-35 -4 -50 -17.5t-23 -43.5q-18 -80 -53 -151.5t-83 -137.5q-25 -35 -49 -67.5t-53 -63.5q-18 -20 -39.5 -28.5t-48.5 -12.5q-17 -2 -73 -7q-15 -1 -32 -1q-42 0 -94 9q-70 13 -145.5 56t-132.5 135q-31 57 -44.5 120t-23.5 126zM343 352q-1 -25 -1 -51q0 -92 14 -195 q2 -10 8.5 -22t16.5 -16q29 -16 61 -22q9 -2 17 -1q23 0 45 10q35 16 62.5 42t43.5 61q20 33 38 93t32 120.5t21.5 107.5t7.5 53l-4.5 22.5t-10.5 20.5q-59 74 -107 155t-95 173q-35 -74 -68 -157.5t-54.5 -181.5t-26.5 -212zM571 1075q0 -6 2 -11t2 -11q8 -37 15.5 -73 t9.5 -75q4 -72 38 -128t81 -105q4 0 8 1t8 1q0 18 -1 36.5t-3 37.5q-2 33 -8 91t-15.5 117.5t-19.5 108.5t-22 61q-10 14 -28 28q-9 7 -19 7q-9 0 -19 -6q-16 -13 -24 -35q-6 -15 -6 -30q0 -8 1 -15z" />
<glyph unicode="P" horiz-adv-x="1015" d="M2 1406q-1 18 -1 27.5t1 10.5q16 25 44 25q6 0 13 -1q33 -4 65 -5t60 -11q33 -12 48.5 -30.5t21.5 -43t9 -54.5t13 -64q10 6 22.5 11t23.5 13q60 42 128 52q42 6 81 6q23 0 47 -2q60 -6 105.5 -19.5t59.5 -20.5q4 -2 24.5 -18t46.5 -38.5t52.5 -46t40.5 -42.5 q25 -27 55 -95q30 -69 44 -157q8 -51 8 -105q0 -39 -4 -79q-10 -96 -66 -178q-31 -43 -61.5 -80t-58 -64.5t-49 -43t-32.5 -17.5q-29 -6 -56.5 -17.5t-55.5 -17.5q-41 -10 -84 -18.5t-84 -16.5q-41 -6 -47 -47q0 -8 -1 -16t-1 -19q-1 -27 -1 -54v-26v-15q0 -31 -3 -62 q-4 -45 -28 -80t-58 -58q-2 2 -10 -2q-4 -2 -12.5 -2t-22.5 2q-23 4 -45.5 13.5t-45.5 19.5q-20 8 -34 33q-41 59 -48 133q-6 78 -16 152.5t-16 152.5q-6 70 -9.5 138.5t-7.5 138.5q-2 35 -4 69.5t-6 69.5q-4 39 -7 77t-7 79q0 4 -3 40.5t-7.5 90t-8.5 113t-7 111.5t-5 88z M399 776q14 -55 14 -110l-1 -16q0 -50 4 -101q4 -47 4 -93v-89q4 -3 12 -3q10 0 24 5q26 8 59.5 25.5t70.5 41t66.5 52t49 57t19.5 57.5q0 27 3 94.5t5 143.5q1 50 1 98v47q-1 70 -9 100q-10 35 -28.5 68t-39.5 66q-4 6 -15 11t-25.5 9t-28 6t-19.5 2q-9 1 -18 1 q-17 0 -33 -3q-24 -4 -49 -8q-8 -2 -20.5 -65.5t-24.5 -144.5t-18 -155q-4 -46 -5 -71q0 -16 2 -25z" />
<glyph unicode="Q" horiz-adv-x="1224" d="M3 582q3 82 17.5 175t38.5 185q12 41 33 77t37 73q27 53 64.5 95t76.5 83q20 23 45 38t50 31q51 29 133 44.5t162 17.5h26q65 0 120 -9q66 -10 87 -32q8 -8 15 -14.5t16 -12.5q88 -76 129 -178q14 -31 26.5 -81t22.5 -100t15 -89t3 -47q-25 -166 -53.5 -280t-55 -185.5 t-43 -105.5t-16.5 -40q-12 -38 -12 -73q0 -15 2 -30q8 -48 26.5 -84t42 -56.5t40.5 -22.5q31 -6 50 10.5t36 38.5q10 16 19.5 33t21.5 35q10 -12 24.5 -30.5t20.5 -43.5q2 -8 2 -18q0 -17 -7 -37q-10 -31 -47 -70q-37 -25 -87 -29q-10 -1 -20 -1q-41 0 -86 13 q-56 17 -115.5 53t-114.5 89q-41 -16 -81 -33.5t-83 -31.5q-45 -16 -90 -16q-6 0 -12 1q-52 2 -97 25q-248 137 -358 393q-14 33 -21 96q-4 42 -4 94q0 24 1 50zM307 655q-1 -19 -1 -37q0 -46 7 -90q10 -66 25.5 -130t44.5 -128q37 -92 96 -166q12 -16 39 -16q14 0 28.5 4 t28.5 8q41 16 59 54q11 22 11 46q0 17 -6 36q-14 53 -41 108q-12 31 -33.5 53.5t-56.5 32.5q-31 6 -33 31q69 45 139 45h6q72 -2 156 -29q27 47 49.5 105.5t27.5 144.5q1 18 1 37q0 74 -16 171q-19 122 -76 298q-2 8 -10 20q-29 35 -70 38h-7q-37 0 -69 -29 q-33 -31 -64.5 -63t-58.5 -69q-78 -104 -123 -223t-53 -252z" />
<glyph unicode="R" horiz-adv-x="1308" d="M1 801q-1 60 -1 111q0 85 3 147q5 98 9 127q4 33 8.5 65.5t10.5 67.5q6 47 14 91t16 87q20 7 38 7q13 0 25 -4q28 -9 44 -27q45 -47 87 -98.5t69 -112.5q4 -10 6 -19.5t6 -23.5q8 6 15 11t14 11q45 35 95 54.5t105 31.5q35 7 68 7q25 0 47 -4q54 -9 108 -52 q41 -35 56.5 -86t29.5 -98q14 -53 14 -116q0 -68 -31 -140q-30 -72 -94.5 -150t-178.5 -158q-24 -19 -24 -37q0 -16 18 -32q14 -12 53 -61.5t86 -108t98 -111.5t90 -74q43 -23 89 -33q17 -4 34 -4q27 1 53 11q41 16 73 66.5t48 148.5q6 61 11.5 114.5t5.5 88.5 q-2 31 -4.5 62.5t-4.5 64.5q-2 23 15.5 35t40.5 8l8 -17q4 -8 8 -14q18 -49 24 -129q3 -40 2.5 -80t-2.5 -81q-6 -81 -21 -149.5t-36 -95.5q-51 -66 -119.5 -103.5t-148.5 -41.5h-11q-159 0 -282 117q-55 53 -97 116.5t-83 126.5q-12 23 -25.5 42.5t-29.5 35.5 q-26 23 -51 23q-8 0 -15 -2q-31 -10 -35 -56q-2 -20 -2 -40t2 -40q3 -26 3 -54q0 -14 -1 -27q-2 -94 -19.5 -159t-40 -104.5t-46 -58t-39.5 -20.5q-47 0 -80 24.5t-39 52.5q-47 268 -66.5 487.5t-22.5 379.5zM358 590q63 29 117.5 109.5t88.5 177t42 189.5q1 17 1 33 q0 70 -27 115h-7q-23 -6 -47 -21t-46.5 -30.5t-40 -30t-23.5 -20.5q-8 -8 -17.5 -25.5t-17.5 -38t-13.5 -40t-5.5 -29.5t-1 -64.5t-2 -119t-1 -124v-81.5z" />
<glyph unicode="S" horiz-adv-x="737" d="M2 90q0 8 2 41t12.5 74t31 82t56.5 65q16 14 35 24.5t37 20.5q19 11 36 11q21 0 38 -17q13 -15 13 -32q0 -20 -19 -42q-43 -41 -73 -71q-30 -28 -43 -60q-11 -26 -11 -58q0 -7 1 -15q3 -41 27 -103q4 -10 18.5 -23.5t32 -25.5t35 -20.5t29.5 -8.5q31 0 48.5 15.5t27.5 37 t14 45t4 44.5q0 16 -1 31.5t-3 31.5l-12 105q-8 51 -14.5 102t-12.5 102q-2 14 -4 26.5t-6 25.5q-4 25 -9 50t-11 48q-10 31 -36 88t-54.5 116.5t-55 108.5t-37.5 68q-27 49 -39 100t-20 105q-2 16 -2 32q0 27 6 55q10 44 32.5 80.5t57.5 65.5t76 43q106 41 191 45 q13 1 25 1q67 0 105 -19q59 -29 87 -75q18 -29 18 -66q0 -21 -6 -44q-12 -53 -22.5 -106t-35.5 -102q-16 -33 -41.5 -43.5t-56.5 6.5q-23 12 -25 24.5t15 32.5q14 18 25.5 31.5t18.5 30t12 40t5 60.5q4 23 -7 39t-32 26q-18 10 -34.5 10.5t-38.5 -12.5q-29 -18 -57.5 -39.5 t-47 -51t-20.5 -70.5v-6q0 -39 24 -91q35 -57 73 -110.5t85 -100.5q33 -35 59.5 -73.5t55.5 -73.5q63 -80 93 -172t50 -191q6 -30 9 -60q1 -8 1 -17q0 -22 -6 -45q-4 -18 -18.5 -62.5t-58.5 -100t-130 -117t-231 -114.5q-30 -13 -60 -13q-48 0 -92 34q-59 41 -97 97t-42 130 z" />
<glyph unicode="T" horiz-adv-x="1017" d="M4 1366q-3 7 -3 14q1 15 13 27q14 15 32 15q4 0 9 -1q29 -6 56.5 -7t56.5 -3q51 -4 101 -7t102 -7l90 -4t92 -7q86 -4 172 -7t172 -7q18 -2 36.5 -2h37.5q18 0 29.5 -10t14.5 -24q1 -5 1 -10q0 -8 -3 -18q-5 -16 -22 -24q-16 -8 -26 -10q-14 -6 -38 -12.5t-45.5 -12.5 t-38 -10t-16.5 -6q-29 -8 -37 -32.5t-12 -51.5q-1 -8 -1 -32.5t1 -64.5q2 -81 5 -194t6.5 -241t6.5 -238.5t3 -188t-2 -90.5q-10 -41 28 -26q51 18 86 52t50 83q23 41 34 37t19 -47q2 -29 -4 -58.5t-15.5 -54.5t-19.5 -43t-17 -23q-33 -29 -55 -45t-61 -36q-31 -17 -71 -25 q-27 -6 -56 -5q-13 0 -27 1q-43 4 -87 22.5t-83 57.5q-8 8 -25.5 43t-38 122t-41 239.5t-34.5 396.5v49t2 49q4 70 10 138.5t12 137.5q0 4 -1 9.5t-1 15.5q-45 -4 -87 -5t-83 -3h-11q-52 0 -98 16q-50 18 -81 76q-25 43 -37 92z" />
<glyph unicode="U" horiz-adv-x="907" d="M0 1159q2 66 6 132.5t21 131.5q21 3 41 3q35 0 66 -9q50 -14 97 -41q25 -12 38.5 -35.5t17.5 -52.5q10 -23 26.5 -49.5t32.5 -52t27.5 -49t13.5 -41.5q2 -20 8 -79t13 -127q6 -66 9 -128q2 -37 1 -61v-25q-2 -10 -2 -41t1 -71t3 -84t3 -84t4 -68.5t5 -36.5t12.5 -35 t26.5 -57.5t36.5 -55t45.5 -26.5q35 2 57.5 52t35.5 114.5t18.5 124t5.5 77.5q2 23 4 69t5 102.5t6 119t5 116.5t4 95t2 55q2 35 5.5 67t7.5 67q6 51 55 59q25 4 39 -3t24 -36q12 -49 13 -100q0 -23 6 -69t13 -94t13.5 -90.5t10.5 -58.5q4 -23 9 -88t8 -141q3 -77 5 -147 q1 -35 1 -60.5t-1 -42.5q-2 -45 -15 -89t-30 -89q-6 -16 -26.5 -50t-57.5 -68t-89 -59.5t-118 -25.5q-117 4 -215 46t-166 139q-39 55 -64.5 118.5t-47.5 126.5q-20 61 -28.5 126t-22.5 128q-13 66 -19 132q-4 41 -4 82q0 25 2 50q0 12 -1 55.5t-1 91.5t-1 89t-1 51z" />
<glyph unicode="V" horiz-adv-x="913" d="M2 1309q-2 7 -2 13q0 19 14 33q18 19 41 15q53 -8 91 -36.5t63 -84.5q37 -86 75 -172t74 -172q33 -74 64 -147.5t59 -149.5q14 -39 20.5 -77.5t16.5 -79.5q6 -27 13.5 -51.5t13.5 -51.5q8 0 16 -2q10 29 23.5 57.5t23.5 57.5q20 59 40 118.5t36 118.5q20 72 37.5 143.5 t34.5 143.5q18 94 32.5 187.5t30.5 187.5q0 12 12 24q15 10 30 10q11 0 23 -5q28 -13 27 -43v-175.5t-16 -171.5q-31 -109 -63.5 -226.5t-60.5 -218.5t-47 -172t-22 -83q-8 -37 -18 -74t-20 -73q-8 -29 -13.5 -59t-15.5 -58q-6 -25 -14.5 -47.5t-20.5 -44.5q-22 -37 -67 -37 h-5q-30 2 -58 -2q-6 -1 -11 -1q-23 0 -47 13q-57 29 -87 72t-40 112q-4 33 -19.5 104.5t-37 161t-46 188.5t-47 190.5t-42 164t-27.5 109.5q-16 66 -31 132.5t-29 131.5q0 11 -4 27z" />
<glyph unicode="W" horiz-adv-x="1472" d="M0 1290q4 8 11 19.5t16 21.5q6 0 32.5 -3t60.5 -9t67.5 -16.5t52.5 -22.5q35 -25 68.5 -49.5t62.5 -52.5q43 -43 68.5 -97.5t37.5 -113.5q8 -37 12.5 -74t8.5 -74q2 -35 19.5 -103.5t39 -142t38.5 -137t19 -90.5q2 -10 4.5 -18.5t6.5 -22.5q10 10 17 15.5t11 11.5 q10 12 27.5 34.5t36 47t34 45t19.5 28.5q12 20 31.5 38t44 29t50.5 14t48 -3q14 -4 25.5 -17t21.5 -26q12 -14 22.5 -29.5t26.5 -37.5q18 72 35 136t33 128q18 80 30.5 162t41.5 159q14 39 23 79t18 81q6 41 15 65.5t25.5 40t42 24.5t64.5 20q20 4 35 4q29 -2 40 -13.5 t19 -40.5q4 -18 6 -73.5t3.5 -117.5t1.5 -121.5v-88.5q0 -25 -5.5 -49.5t-13.5 -48.5q-2 -6 -19.5 -76t-44 -171t-59.5 -217t-63 -214q-32 -99 -58 -163q-26 -63 -40 -62h-1q-18 4 -37.5 2t-39.5 0h-27t-54.5 13t-66.5 49t-61 108q-16 47 -26.5 97t-22.5 101 q-6 23 -14.5 44.5t-16.5 47.5q-10 -8 -29.5 -38.5t-41 -68.5t-40 -73t-22.5 -49q-4 -12 -10.5 -54t-17.5 -87t-29.5 -82t-47.5 -43q-16 -1 -31 -1q-50 0 -92 15q-16 6 -33.5 9t-33.5 8q-20 6 -35.5 29.5t-27 53t-18.5 56t-11 37.5q-4 10 -22.5 80.5t-42 170t-51.5 215 t-51.5 218t-40 178.5t-18.5 96q-4 33 -8 65.5t-12 63.5q-8 33 -17.5 64.5t-19.5 66.5z" />
<glyph unicode="X" horiz-adv-x="1671" d="M4 1317q-2 6 -2 12q0 9 6 17q10 12 27 12q47 0 94 -6q10 -2 21.5 -3t21.5 -6q98 -51 184 -116.5t158 -151.5q35 -45 71 -91t72 -93q92 98 183.5 197.5t183.5 199.5q56 -29 76 -78q12 -28 11 -58q0 -24 -7 -50q-10 -37 -52 -116t-88 -175t-83 -196.5t-37 -180.5 q43 -119 92 -187.5t99 -103t96.5 -45t80.5 -10.5h9q51 0 103 22q58 24 112.5 59.5t100.5 77.5t81 77q12 14 29.5 7.5t21.5 -24.5q2 -11 2 -23q0 -23 -8 -48q-10 -31 -55 -74t-105.5 -86t-128 -80t-123.5 -55q-19 -7 -83 -13q-23 -2 -49 -2q-46 0 -100 8q-85 12 -174 48 t-157 116q-38 60 -74 62h-3q-35 0 -85 -47q-37 -37 -74.5 -72t-72.5 -70q-27 -27 -55.5 -41t-59.5 -20q-32 -6 -64 -7h-21q-22 0 -44 1q-20 2 -39.5 14t-36.5 29q-8 10 -8 26.5v32.5q0 25 19.5 70t51.5 101t70.5 116.5t76.5 114t72 95.5t54 60q25 23 32 45.5t-9 55.5 q-10 20 -21 51q-4 14 -23.5 49t-47 79t-58 92t-60.5 90t-52.5 71.5t-30.5 38.5q-45 35 -71.5 81t-49.5 101z" />
<glyph unicode="Y" horiz-adv-x="892" d="M2 1206q4 57 12.5 113.5t36.5 107.5q4 7 8 19q12 29 38 29h7q16 -2 31 -4.5t27 -6.5q29 -10 50 -27.5t38 -45.5q12 -25 21.5 -39.5t15.5 -27.5t9 -29.5t7 -41.5q8 -78 15.5 -153.5t17.5 -153.5q2 -23 5 -45t7 -45q4 -20 22.5 -26.5t35.5 8.5q23 20 36 43.5t25 48.5 q10 29 20.5 55.5t16.5 54.5q8 37 18 93.5t21.5 111.5t23 99.5t21.5 54.5q31 4 61.5 9t59.5 11q20 4 42.5 -8t32.5 -33q16 -37 33 -72.5t33 -74.5q8 -16 11 -33.5t7 -34.5q4 -18 8.5 -36.5t8.5 -39.5q2 -8 5 -16t3 -16q-2 -70 -4 -138.5t-2 -136.5q0 -78 2 -153.5t4 -153.5 q0 -29 -6 -88t-17.5 -133t-27 -155t-35.5 -152q-6 -23 -21.5 -37t-33.5 -22q-15 -5 -32 -5h-8q-22 2 -40 17q-111 84 -115 223q-1 53 -1 106v53.5v53.5q0 53 -1 106q-2 72 -5 141.5t-7 139.5q0 10 -4 18.5t-9 18.5q-6 -4 -11 -8.5t-9 -8.5q-25 -47 -66 -61t-86 -21 q-11 -2 -20 -2q-25 0 -45 11q-119 47 -189 166q-51 88 -78 180q-25 80 -25 167q0 12 1 25z" />
<glyph unicode="Z" horiz-adv-x="1030" d="M8 205q16 86 54 159.5t75 151.5q18 35 37 71t35 72q37 88 91 164t106 154q47 74 92 148.5t92 148.5q4 6 6 14t8 21q-66 6 -129 8t-123 16q-59 12 -115.5 37t-113.5 53q18 4 35.5 10.5t36.5 6.5q31 0 60.5 -2t59.5 -4q84 -6 165 -11.5t165 -13.5q45 -4 89 -13.5t89 -17.5 q43 -8 64.5 -24.5t29 -39t3 -50t-12.5 -58.5t-22 -69q-2 -4 -38 -73t-90.5 -172.5t-121 -229t-129 -243.5t-113.5 -213t-74 -140q-10 -23 0.5 -43.5t32.5 -24.5q39 -7 77 -7q93 0 173 44q72 39 133.5 91t106.5 124q27 47 55 91t57 91q10 14 25.5 14t26.5 -14 q24 -38 24 -61.5t-29 -57.5q-8 -10 -35.5 -49t-70.5 -89t-100.5 -102.5t-120.5 -88.5q-18 -12 -37 -19q-29 -10 -54.5 -19t-54.5 -18q-66 -16 -130 -18h-13q-58 0 -117 16q-37 10 -72.5 20.5t-70.5 26.5q-71 29 -103 79q-21 32 -20 86q0 30 6 67z" />
<glyph unicode="[" horiz-adv-x="473" d="M2 414.5v231.5t2 222.5t3 189.5t3 134t2 55q6 59 70 49q6 0 27.5 -1t52.5 -5t67.5 -14.5t71.5 -28.5q-12 -18 -22.5 -32.5t-20.5 -30.5q-12 2 -23.5 4t-21.5 4q-43 6 -58.5 -7.5t-9.5 -58.5q4 -23 9.5 -46t11.5 -46q2 -10 9 -60t17.5 -127t21.5 -171t23.5 -193.5 t23.5 -196t21.5 -174t16.5 -131t8 -67.5q2 -16 3 -31.5t3 -32.5q2 -66 34 -84t89 15q6 4 12.5 8t12.5 8q33 -76 -39 -98q-18 -6 -50 -9t-65 -6t-58.5 -3h-33.5q-98 6 -141 64t-56 144q-6 43 -9 124t-5 183.5t-2 218z" />
<glyph unicode="]" horiz-adv-x="600" d="M0 1233q29 29 55.5 38t53.5 7q66 -4 130 -11t130 -14q37 -4 52 -18t28 -49q6 -18 21 -82t31.5 -140.5t29 -150.5t12.5 -111q0 -16 4 -88.5t11 -172t14.5 -212t13.5 -210t9 -164t3 -72.5q-4 -27 -16.5 -48.5t-40.5 -29.5q-88 -27 -172 -22t-162 71q6 12 10 23.5t8 21.5 q4 2 7.5 4t7.5 2q43 6 66.5 12.5t32.5 19.5t8 37t-9 65q-27 145 -29 288.5t-6 290.5q-2 135 -4 269.5t-6 269.5v147q-72 6 -142.5 13.5t-150.5 15.5z" />
<glyph unicode="_" horiz-adv-x="757" d="M0 -178q53 0 98 1t88 -3q106 -4 211 -9.5t209 -13.5q41 -4 79 -16t73 -41q-4 -20 -6 -38.5t-35 -23.5q-10 -2 -18.5 -9t-18.5 -11q-25 -8 -47.5 -19.5t-52.5 -7.5q-41 4 -84 -6t-86 -12q-61 0 -122 4l-122 8q-10 2 -20.5 2t-20.5 2t-20.5 2t-14.5 7q-29 39 -54.5 81 t-35.5 103z" />
<glyph unicode="a" horiz-adv-x="1050" d="M0 432q2 117 48 215t116 191q33 41 62.5 82t60.5 81q13 19 31 29q11 6 26 6q10 0 21 -2q49 -10 99 -17t99 -18q35 -8 68.5 -20.5t70.5 -22.5q-2 -16 -1 -27t-3 -22q-29 -92 -29 -185l1 -24q0 -84 -4 -170q0 -35 -4 -96q-2 -36 -2 -73q0 -27 2 -53q2 -66 10 -125.5 t26 -92.5q22 -28 47 -27q21 0 43 19q113 100 158 239q12 41 25.5 83t27.5 83q20 0 35 -6t15 -22q1 -4 1 -9q0 -13 -4 -29q-6 -22 -4 -40q-10 -27 -18 -55.5t-18 -57.5q-16 -39 -33 -73.5t-45 -75.5q-29 -33 -47.5 -51.5t-51.5 -28.5q-58 -20 -105 -20h-12q-50 3 -110 42 q-33 16 -73 68.5t-64 151.5q-16 -16 -45 -43t-62 -48q-45 -37 -99 -42q-11 -1 -22 -1q-41 -1 -81 15q-50 20 -87.5 61t-52.5 98q-4 16 -10 56.5t-6 56.5zM196 220q1 -18 9 -27q3 -7 21 -7h3q16 0 25 7q25 16 49.5 36.5t40.5 44.5q57 86 102.5 175.5t65.5 193.5 q10 53 24.5 106.5t30.5 112.5q-76 -43 -125 -112q-8 -10 -28.5 -48t-47 -90.5t-56 -112t-54.5 -112.5t-41 -91t-18 -48q-1 -7 -1 -17v-11z" />
<glyph unicode="b" horiz-adv-x="1316" d="M0 1250q2 58 2 118q2 59 3 119.5t3 122.5q2 102 12 211q2 16 4.5 35.5t24.5 27.5q22 4 42 4q47 0 84 -20q52 -28 73 -131q4 -14 17.5 -63.5t29.5 -118t34.5 -147.5t34 -151.5t25.5 -132t10 -88.5q4 -84 16.5 -166t20.5 -165q3 -28 3 -58v-15q-1 -38 -1 -85q74 47 142 61 q19 4 37 3q49 0 100 -25q66 -31 104.5 -86.5t73.5 -116.5q18 8 34.5 15.5t33.5 13.5q49 23 97 43t97 41q27 11 53 11q13 0 26 -3q38 -8 81 -23q-10 -12 -16.5 -21t-13.5 -15.5t-19.5 -8.5t-34.5 0q-39 0 -82 -12t-85 -29.5t-81 -38t-70 -37.5q-2 -4 -3 4.5t-1 6.5 q5 -18 5 -44q0 -16 -2 -36q-5 -51 -16 -102.5t-21.5 -91.5t-12.5 -42q-23 -47 -45 -90t-63 -78q-8 -6 -20.5 -9t-24.5 -7q-11 -1 -21 -1q-54 1 -89 19q-42 22 -52 43q-12 29 -14.5 57.5t10.5 57.5q8 16 17 32.5t20 31.5q35 43 67.5 86t67.5 84q20 26 20 57q0 17 -6 35 q-14 39 -27.5 74.5t-32 63.5t-43 45t-61.5 17q-33 -6 -56.5 -26.5t-39.5 -48t-24.5 -59t-8.5 -60.5q0 -8 -3 -44t-7 -85t-9 -105.5t-10.5 -104.5t-8.5 -84t-3 -44q-2 -69 -44 -101q-28 -22 -67 -21q-19 0 -40 5q-14 4 -28.5 7t-35.5 8q-16 57 -32.5 117.5t-32.5 119.5 q-20 78 -32.5 156t-23.5 155q-14 92 -20 184.5t-10 186.5q-8 111 -16.5 222.5t-12.5 222.5q-3 39 -3 78q0 19 1 39zM620 -82q3 -37 50 -39q33 0 52 7.5t36 33.5q38 64 38 129q0 67 -26 139q-2 4 -6 8.5t-6 6.5q-23 -23 -39.5 -37t-32.5 -47q-12 -23 -20.5 -35t-13.5 -23.5 t-10 -24.5t-11 -34q-12 -39 -12 -71q0 -6 1 -13z" />
<glyph unicode="c" horiz-adv-x="1017" d="M0 254q0 39 10 88t35 90q31 49 60.5 98.5t62.5 96.5q45 70 100.5 128t130.5 99q57 31 119 53q19 7 39 7q7 0 15 -1q28 -4 51 -24q6 -6 12 -11.5t12 -9.5q35 -23 40 -34t-3 -52q-2 -10 -1 -23.5t-1 -25.5q-7 -48 -38 -48q-3 0 -7 1q-36 9 -36 51q0 6 1 13q2 10 4 23t6 36 q-18 -12 -60 -53t-99 -119q-72 -86 -117 -190.5t-66.5 -197.5t-22.5 -162v-8q0 -62 15 -73q10 -10 29.5 -12t34.5 2q61 18 118 53q23 12 43.5 28.5t42.5 33.5q59 43 118 84t116 88q59 51 117.5 105t117.5 110q2 -2 19 -11q-12 -59 -50 -97t-73 -79q-6 -6 -53 -46t-105.5 -88 t-114 -94t-81.5 -67q-39 -31 -84 -49t-92 -30q-35 -9 -71 -9q-43 0 -86 13q-79 24 -126 90q-35 49 -56.5 105.5t-25.5 117.5z" />
<glyph unicode="d" horiz-adv-x="1406" d="M2 584v17q0 31 5 61q7 38 24 73q37 76 87 141.5t122 114.5q63 45 144 45h7q29 -2 56.5 -5t54.5 -19q18 -10 48 -10.5t40 18.5q53 98 93 199.5t81 205.5q14 35 30.5 69t32.5 67q4 10 12.5 16t18.5 12q10 8 21.5 15.5t21.5 13.5q35 -10 71 -19.5t72 -17.5 q35 -10 46.5 -20.5t11.5 -44.5q-2 -43 -6 -86.5t-15 -83.5q-18 -72 -40.5 -141.5t-45.5 -141.5q-4 -14 -20.5 -63.5t-41 -116t-53 -143t-56 -148.5t-52 -131.5t-39.5 -87.5q-45 -96 -65.5 -170t-25.5 -127q-3 -29 -3 -53q0 -19 2 -35q4 -35 8 -51q16 -54 57 -55q16 0 35 9 q35 16 67 35t60 43q47 39 93.5 81t89.5 87q29 31 55.5 66t52.5 67q37 47 70 91.5t71 87.5q14 16 27 27t29 34q12 -14 23.5 -19.5t27.5 -21.5q-43 -59 -85 -120.5t-89 -119.5q-59 -68 -118.5 -133t-125.5 -127q-51 -49 -107.5 -91t-127.5 -58q-32 -8 -62 -8q-34 0 -66 10 q-60 18 -116 59q-70 53 -96 133q-23 74 -35 148q-6 37 -6 74.5t6 76.5q2 6 7 22.5t5 26.5q-12 -2 -24.5 -7t-22.5 -7q-20 -3 -41.5 -3t-43.5 3q-44 6 -112 25q-80 23 -110.5 81t-34.5 130zM178 463q98 0 152.5 39t88.5 95t58.5 119.5t65.5 117.5q-54 32 -106 32h-11 q-58 -4 -108 -32.5t-90 -75.5q-40 -48 -60 -100q-20 -50 -20 -99q0 -56 30 -96z" />
<glyph unicode="e" horiz-adv-x="843" d="M1 429q0 95 46 192q35 76 74 150.5t80 146.5q20 35 50 65.5t83 52.5q60 14 112 14h11q43 0 61 -3q25 -6 42.5 -19.5t23.5 -40.5q4 -16 18 -27.5t25 -27.5q20 -39 21 -74q0 -8 -2 -16q-6 -43 -23 -84q-4 -12 -26 -53t-61.5 -88.5t-98 -88.5t-138.5 -53q-6 0 -18 -4 q-29 -47 -46.5 -97t-27.5 -104q-3 -21 -3 -39q0 -61 30 -94q31 -34 92 -34q17 0 36 3q29 4 59 13.5t52 25.5q76 53 147.5 108.5t131.5 127.5q16 23 29.5 47.5t29.5 46.5l25 31q8 -22 8 -40q0 -10 -3 -20q-7 -26 -24 -49q-61 -94 -141 -169.5t-166 -145.5q-41 -33 -89 -43 t-97 -12h-7q-101 0 -167 54q-68 56 -107 148q-42 101 -42 200zM279 522q53 12 87.5 32.5t67.5 43.5q88 63 112 144q13 45 14 96q0 42 -9 88q-7 35 -40 35h-7q-47 -74 -76 -127.5t-47.5 -90t-29.5 -60.5t-19 -38q-16 -41 -29.5 -62.5t-23.5 -60.5z" />
<glyph unicode="f" horiz-adv-x="980" d="M1 -64q1 70 5 142q2 66 6 130t11 130q10 98 20 193.5t25 193.5q12 90 28.5 177t32.5 177q4 20 3 40t3 40q10 45 18.5 90t18.5 90q80 -6 107 -88q12 -37 30 -65q23 -33 28 -70t9 -72q4 -53 6 -105t2 -105q1 -14 1 -27q0 -28 -3 -56q-4 -42 -6 -83v-17q0 -103 45 -190 q29 -55 59.5 -109.5t71.5 -105.5q27 -35 60.5 -53.5t70.5 -23.5q12 -2 23 -2q26 0 52 8q38 11 71 40q115 94 127 242q4 25 15 38t38 23q0 -18 1 -33.5t1 -31.5q-2 -27 -3 -52.5t-5 -50.5q-10 -57 -45 -111.5t-115 -88.5q-43 -10 -72.5 -20.5t-64.5 -14.5q-20 -2 -40 -2 q-14 0 -29 1q-34 3 -75 7q14 -37 30 -72t26 -69q10 -39 16 -78t14 -80q6 -31 12.5 -61.5t10.5 -61.5q2 -12 0 -44t-11 -74t-30.5 -89t-58.5 -92q-49 -59 -109 -76q-32 -8 -66 -8q-30 0 -61 6q-121 23 -187.5 97.5t-94.5 189.5q-18 88 -19 184q-3 58 -3 114v29zM293 -268 q2 -31 3 -73t6 -86t14.5 -85t27.5 -68q18 -29 45 -35q5 -1 10 -1q21 0 39 22q16 23 31.5 48.5t24.5 53.5q18 72 20 145q1 24 1 49q0 49 -3 99q-6 109 -39 207t-72 197q-6 16 -13 31.5t-17 35.5q-12 -31 -23.5 -53t-15.5 -45q-8 -39 -15.5 -108.5t-12.5 -140t-8 -126 t-3 -67.5z" />
<glyph unicode="g" horiz-adv-x="1378" d="M4 545q8 66 23.5 129t46.5 121q70 125 164 237q47 57 114 68q43 8 86 8q23 0 45 -2q47 -4 90 -16q17 -4 36 -4q26 0 55 10q4 2 11 -2t13 -7q-4 -16 -4 -33.5t-8 -31.5q-14 -25 -45 -35q-25 -10 -49.5 -17t-51.5 -16q-6 -23 -37.5 -90t-71.5 -152t-79 -170t-55 -141 q-23 -68 -23 -133q0 -31 27.5 -43t56.5 2q33 16 52.5 44t37.5 57q55 88 97.5 182t82.5 190q33 70 53.5 141.5t26.5 147.5q47 35 98 41q10 1 19 1q38 0 68 -19q8 -6 15 -14.5t9 -18.5q8 -53 13.5 -120.5t7.5 -138.5q1 -47 1 -93v-45q-1 -68 -2 -124.5t-4 -94t-3 -46.5 q20 10 33.5 17.5t25.5 13.5q53 27 104.5 53.5t104.5 55.5q18 10 36.5 17t35.5 18q20 12 33.5 17t24.5 4t24.5 -9t35.5 -23q-16 -29 -44.5 -37t-53.5 -18q-72 -33 -138.5 -71t-127.5 -85q-20 -14 -39 -30.5t-41 -26.5q-35 -20 -41 -57q-53 -199 -100.5 -342.5t-84 -238.5 t-61 -147.5t-33.5 -66.5q-14 -25 -51 -41t-83 -16t-93 22.5t-80 75.5q-12 23 -11 54.5t7 60.5q49 197 184 354q16 16 29.5 35.5t30.5 36.5q20 18 21 40.5t7 45.5q16 68 19 135q1 37 1 75q0 30 -1 60q-2 10 -3 19.5t-5 23.5q-23 -23 -41.5 -41t-34.5 -39q-61 -78 -139 -95 q-21 -5 -43 -5q-58 0 -119 33q-23 10 -44.5 21t-41.5 28q-76 57 -103 133q-19 55 -19 119q0 24 3 49zM373 -481q4 -37 37.5 -77t74.5 -50q51 113 60.5 233.5t15.5 249.5q-16 -10 -25.5 -15t-15.5 -14q-37 -45 -68.5 -93t-54.5 -103q-12 -33 -20 -64q-5 -22 -5 -44 q0 -11 1 -23z" />
<glyph unicode="h" horiz-adv-x="1249" d="M2 164q-2 29 -2 59q0 33 2 66q6 104 12 206.5t17 206.5q12 139 23.5 275.5t29.5 273.5q16 106 25.5 178t11.5 125q0 66 8 132.5t14 136.5q31 4 58.5 10t56.5 6h8q36 -1 52 -17q18 -18 28 -59q2 -10 9 -20t15.5 -45t17.5 -104.5t17.5 -198.5t13.5 -328t5 -489 q-4 -20 -9 -42t-12 -53q14 12 22.5 18.5t12.5 12.5q45 76 111.5 127t128.5 107q59 53 141 59q35 4 62 -2q72 -17 72 -85q0 -6 -1 -13q-4 -72 -9 -145t-11 -144q-2 -29 -12.5 -101.5t-17.5 -151.5t-8 -145v-8q0 -58 13 -71q66 33 99.5 83t58.5 105q29 66 48.5 133.5 t41.5 134.5q10 31 20.5 61.5t20.5 61.5q35 4 44 -1t9 -34q0 -47 -17.5 -113.5t-41 -131t-45 -116.5t-27.5 -71q-25 -55 -61.5 -96t-95.5 -66q-14 -6 -44 -15t-67 -11h-14q-31 0 -64 7q-41 9 -78 40q-62 57 -62 137q0 12 1 25q8 61 20.5 121.5t24.5 121.5q20 95 40 191 q12 54 12 111q0 45 -7 92q-47 -23 -86 -49.5t-68 -67.5q-25 -35 -47 -71t-41 -74q-12 -25 -35.5 -66t-48 -83t-45 -77t-24.5 -45q-20 -51 -47 -96t-68 -84q-23 -23 -51.5 -28t-56 1t-50 24.5t-30.5 47.5q-19 59 -23 121z" />
<glyph unicode="i" horiz-adv-x="675" d="M6 152q-4 45 -4 89q0 64 8 124q14 102 47 206q18 59 30.5 121t29.5 121q6 20 16 47t26.5 51.5t39 41t53.5 14.5q29 4 47 5t30.5 -5t21.5 -19.5t22 -36.5q14 -29 22 -57.5t4 -62.5q-4 -43 -18 -113t-32.5 -148.5t-39 -159.5t-36 -148.5t-21.5 -115t4 -55.5q16 -10 23.5 -9 t15.5 5q29 20 68.5 68.5t80.5 106t78 111.5t60 87q14 20 31.5 37.5t33.5 36.5q19 -4 25 -12q3 -3 2 -8q0 -6 -6 -15q-66 -86 -119 -181.5t-129 -173.5q-18 -18 -35.5 -37.5t-36.5 -37.5q-20 -19 -60 -29q-33 -8 -68 -8h-15q-43 2 -83 12t-61 31q-47 45 -55 117zM258 1278 q45 27 94 37q10 2 19 2q19 -1 29 -11q14 -14 16 -49q0 -4 1 -11t3 -19q-4 -10 -5 -26.5t-12 -31.5q-29 -43 -75 -46h-7q-42 0 -75 34q-39 39 -39 62q0 25 51 59z" />
<glyph unicode="j" horiz-adv-x="1300" d="M2 -633q-1 13 -1 25q0 48 13 94q15 59 37 115q23 53 47.5 107t53.5 106q10 18 41.5 54t66.5 78t63.5 85t32.5 73q29 166 58.5 328t42.5 328q2 12 2 23.5v23.5q2 20 3 40t-1 40q-1 4 -1 9q0 29 24 50q23 20 50 20q6 0 13 -1q53 -8 96 -33t74 -76q18 -29 26.5 -66.5 t14.5 -74.5q10 -55 16 -112.5t10 -113.5q2 -23 1 -42t-3 -39q0 -8 2 -16.5t4 -20.5q47 20 92.5 40.5t92.5 37.5q55 23 112.5 40t116.5 33q13 4 25 4q38 0 73 -37q-29 -10 -52 -18t-46 -12q-61 -10 -119.5 -26.5t-111.5 -49.5q-33 -20 -66 -35.5t-61 -38.5q-45 -35 -61.5 -78 t-18.5 -90q-47 -260 -114.5 -434t-135.5 -284.5t-125 -167t-82 -78.5q-20 -16 -43.5 -28.5t-48.5 -22.5q-7 -2 -15 -2q-6 0 -14 1q-16 3 -28 9q-145 68 -156 233zM72 -705q2 -49 45 -49q16 0 33.5 7.5t31.5 17.5q8 4 10.5 16.5t6.5 22.5q20 78 40.5 152.5t39.5 152.5 q12 55 21 111.5t19 111.5q-4 2 -8 3t-8 3q-70 -104 -115 -194t-70.5 -162t-35.5 -121t-10 -72zM563 1266q2 24 12 43q20 39 53 45q7 1 13 1q27 0 53 -22q-4 -16 0 -23t11.5 -8.5t16.5 -1.5t15 -2q40 -16 54 -88q-23 -18 -43.5 -36.5t-40.5 -34.5q-29 -23 -47 -25h-2 q-17 0 -44 21q-18 14 -30.5 35.5t-17.5 45.5q-4 18 -4 36q0 6 1 14z" />
<glyph unicode="k" horiz-adv-x="1243" d="M2 49v29q0 96 12 196q14 114 19 226q2 27 8 99.5t16.5 167.5t22.5 199.5t26.5 192.5t29 149.5t26.5 69.5q31 -6 61.5 -8t52.5 -18q34 -29 58 -66q20 -32 21 -72q0 -7 -1 -14q-4 -63 -9 -126.5t-5 -127.5q0 -47 7 -94t13 -94q0 -10 2.5 -18.5t2.5 -18.5q4 -35 5 -70t5 -82 q111 104 220.5 191.5t238.5 146.5v-6q0 -55 -33 -92q-35 -39 -72 -78q-59 -57 -114.5 -117.5t-114.5 -119.5q-4 -4 -14 -33q-7 -20 -6 -48q0 -12 1 -24q4 -43 31 -96t94 -105q35 -33 77 -46q34 -11 70 -10h16q44 3 85 18.5t72 39.5q70 53 129 115t104 137q12 23 30.5 36.5 t53.5 8.5q-16 -29 -27.5 -55t-25.5 -49q-25 -45 -65 -91t-83 -87t-81.5 -72t-59.5 -45q-41 -27 -87 -31q-13 -1 -26 -1q-33 0 -65 7q-43 10 -86 26.5t-82 39.5q-35 23 -64.5 55.5t-60.5 63.5q-4 4 -8 10t-14 23q-20 -150 -39 -252.5t-36.5 -170t-31.5 -104.5t-26.5 -53 t-23.5 -20.5t-22 -4.5q-18 -2 -29.5 -3t-21.5 -1t-22.5 4.5t-30.5 12.5q-53 25 -77.5 69.5t-33.5 98.5q-12 94 -12 192z" />
<glyph unicode="l" horiz-adv-x="819" d="M2 172q4 58 16 115q14 68 26.5 136.5t25.5 135.5q18 117 51 228.5t86 218.5q2 2 18.5 32.5t44 74.5t63.5 98.5t77 106.5t83 97t82 70q14 12 42 18q10 2 23 3q21 0 46 -7q25 -2 37 -41t13 -95v-9q0 -52 -10 -110q-11 -62 -34 -107q-45 -94 -77.5 -155.5t-56 -99.5 t-36 -55.5t-14.5 -25.5q-43 -143 -77 -275.5t-55.5 -249t-30.5 -214.5q-4 -46 -4 -87q0 -45 5 -84q14 -4 34.5 9.5t42 34t42 45t35.5 47.5q33 45 63.5 91t59.5 93q33 55 66.5 111.5t66.5 111.5q8 12 13 24.5t11 22.5q2 4 6.5 12.5t8.5 16.5t9 13t11 3q3 -22 3 -40 q0 -16 -2 -28q-5 -26 -15 -55q-10 -25 -31.5 -70.5t-62.5 -113t-106.5 -159t-162.5 -205.5q-32 -31 -70 -43q-29 -9 -59 -10q-10 0 -20 1q-43 2 -89 21.5t-86 52.5t-69 78t-37 100q-7 42 -7 84q0 17 1 33zM411 880q0 -54 23 -85q31 39 57.5 72.5t49.5 68.5q45 76 70.5 157 t45.5 167q4 23 5.5 47t5.5 47q1 6 1 10q1 15 -9 24q-12 11 -27 19q-9 7 -18 7q-5 0 -9 -2q-14 -5 -24 -19l-19 -25q-33 -41 -54.5 -87t-35.5 -95q-6 -20 -23 -72q-16 -52 -27 -114q-12 -64 -12 -120z" />
<glyph unicode="m" horiz-adv-x="1542" d="M2 252q-1 7 -1 21q0 19 2 53q3 56 8 123t11.5 129.5t12.5 93.5q16 80 30.5 159.5t51.5 155.5q22 4 43 4q26 0 51 -6q45 -10 78 -49q29 -35 50 -76q11 -21 11 -46q0 -23 -10 -50q35 27 55.5 59.5t42.5 61.5q27 33 40.5 54.5t41.5 49.5q16 16 49 30.5t70 18.5q12 2 24.5 2 h24.5h9q52 0 77 -20q27 -22 37 -80q9 -60 9 -118v-11q-1 -63 -11 -127q-4 -23 -4 -47t-4 -55q16 20 30.5 36.5t24.5 32.5q31 41 61.5 82t59.5 84q25 33 65 33q29 2 57.5 3t57.5 -1q63 0 78 -57q2 -12 5 -24.5t5 -25.5q2 -33 2 -64t-2 -60t-2 -60t2 -63q0 -20 -5 -73.5 t-11 -120t-11.5 -133.5t-5.5 -116q12 -14 21.5 -8t17.5 12q53 35 89 85.5t67 105.5q33 57 50.5 117.5t33.5 126.5q8 -2 18.5 -1t16.5 -4q6 -4 12 -15q4 -7 4 -11q0 -3 -2 -6q-4 -16 -10 -38t-14.5 -44.5t-14.5 -44t-10 -35.5q-4 -10 -15.5 -42t-27.5 -72t-37.5 -82 t-46.5 -70q-14 -23 -37.5 -40.5t-53.5 -28.5t-59.5 -14t-56.5 3q-86 23 -132 78t-60 139q-13 84 -13 166v36q4 100 15 201q2 10 2 22.5t4 31.5q-10 -10 -16.5 -15.5t-8.5 -11.5q-23 -29 -44 -70t-38.5 -80.5t-30 -71.5t-14.5 -40q-18 -43 -35.5 -85t-33.5 -87 q-10 -29 -13.5 -59.5t-11.5 -59.5q-2 -10 -5 -22.5t-9 -22.5q-23 -44 -68 -56q-15 -4 -30 -4q-30 0 -62 15q-55 27 -79 70q-20 37 -20 84q0 8 1 16q8 90 16 177t23 175q12 84 31.5 165t35.5 165q4 16 3 32.5t1 41.5q-18 -16 -32.5 -27.5t-29 -24t-26.5 -28t-24 -41.5 q0 -2 -14.5 -54.5t-37 -131t-51 -170t-58.5 -168t-58 -128.5q-27 -50 -50 -49h-2q-47 6 -87 27.5t-66 60.5q-14 23 -18.5 50.5t-8.5 56.5z" />
<glyph unicode="n" horiz-adv-x="1013" d="M0 795q0 59 9 120.5t20 120.5q2 14 8 28.5t10 31.5q7 1 15 1q44 1 74 -21q36 -24 67 -64q29 -35 37 -79t18 -85q16 -55 29.5 -111.5t29.5 -120.5q12 20 20.5 33t14.5 25q31 61 76 111.5t92 99.5q33 33 70 41q25 5 51 5q13 0 27 -1q12 0 26.5 -10.5t20.5 -20.5 q14 -33 27.5 -64.5t15.5 -64.5q8 -74 9 -148.5t3 -148.5q0 -12 -1 -48t-3 -83t-2 -98v-93t3 -71t9 -29q20 -2 42 19.5t40.5 51.5t32.5 59.5t20 45.5q14 33 19.5 54.5t15.5 66.5q6 18 12.5 43t11.5 48.5t11 39t12 15.5q4 0 6 -1t7 -1q6 0 7 -16q0 -8 0.5 -18t-0.5 -22 q-1 -22 -2 -46.5t-1 -43.5q-2 -16 -7.5 -33.5t-11.5 -33.5q-4 -16 -16 -55.5t-31.5 -82.5t-48.5 -82t-66 -55q-31 -17 -61 -17q-10 -1 -20 1q-40 8 -76 30q-90 53 -109 160q-6 33 -8 65.5t-4 67.5q0 104 7 207t22 205q4 33 5 66.5t3 74.5q-57 -33 -88 -73.5t-51 -88.5 q-12 -31 -26.5 -89t-27 -117.5t-20.5 -109.5t-8 -64q0 -10 -2.5 -42t-5.5 -68t-6 -67.5t-5 -40.5q-4 -25 -13 -34t-32 -4q-37 4 -72.5 10t-70.5 16q-29 6 -39 33q-82 170 -94 362q-4 78 -15.5 154t-11.5 154z" />
<glyph unicode="o" horiz-adv-x="962" d="M0 417v18q0 35 6 69q18 111 45 216t82 204q27 45 64 88q27 28 43 30q1 0 3 1q16 0 48 -15q37 -20 71 -45t46 -70q23 4 41 6.5t36 6.5l22 2q47 0 81 -30q42 -36 65 -79q6 -12 19.5 -45t26 -77t18.5 -95q3 -26 3 -51t-3 -49q-4 -16 -8 -30.5t-9 -33.5q20 0 37 -2t33 2 q31 10 62.5 20.5t60.5 22.5q10 4 19.5 8.5t19.5 4.5q8 0 15 -6.5t16 -10.5q0 -6 -14.5 -18.5t-35 -24.5t-43 -23.5t-36.5 -13.5q-31 -6 -64 -8t-72 -6q-2 -4 -15 -32.5t-31.5 -64.5t-37 -70t-26.5 -46q-90 -127 -236 -127q-20 0 -41 2q-55 6 -105 31.5t-89 63.5t-66.5 87 t-38.5 103q-10 43 -12 87zM303 352q-20 -48 -20 -94q0 -57 30 -113q18 -35 41 -42q7 -2 14 -2q19 0 44 12q31 14 49 38.5t31 53.5q27 59 51 116.5t49 116.5q-45 47 -89 94.5t-89 94.5q-10 -25 -20.5 -50.5t-20.5 -52.5q-16 -43 -33.5 -86t-36.5 -86zM443 700q3 -30 22 -57 q14 -18 25.5 -35.5t27.5 -34.5q16 -20 35.5 -37.5t40.5 -33.5q6 14 12 35.5t7 57.5v12q0 32 -4 77q-5 53 -21 131q-10 39 -42 59q-27 16 -63 16q-8 0 -16 -1q-6 -35 -12 -65.5t-11 -63.5q-2 -17 -2 -34q0 -13 1 -26z" />
<glyph unicode="p" horiz-adv-x="1101" d="M4 6q4 94 4 188.5t-4 188.5q-3 66 -3 132q0 77 4 153q7 143 15 286q2 31 1 62t-1 63q25 10 44 15q11 2 21 2q6 0 13 -1q15 -3 29 -16.5t35 -36.5q10 -14 23.5 -25t23.5 -24l15 -15t12 -17q27 -74 55 -154q8 6 15 12t13 15q45 68 110 102.5t142 50.5q10 4 23.5 3t26.5 -3 q59 -4 105 -34.5t77 -71.5q35 -45 55 -101q12 -33 12 -67q0 -24 -6 -49q-7 -25 -7 -48q0 -12 2 -23q3 -19 3 -39q0 -17 -2 -34q55 -2 108.5 -2t100.5 -26q8 -4 15.5 -10.5t17.5 -14.5q-20 -23 -40 -23t-40 9q-39 16 -89 16t-87 -4q-23 -53 -38 -87t-50 -65 q-29 -25 -53.5 -43t-65.5 -53q-31 -23 -61.5 -29t-56 -5t-44 6.5t-24.5 9.5q-16 12 -25.5 30.5t-11.5 39t3 41t17 36.5q29 35 61.5 64.5t75.5 46.5q55 18 56 71q0 72 1 142v48q0 47 -1 95q0 16 -4 33.5t-9 34.5q-10 29 -22 35t-43 -5q-41 -10 -69.5 -35.5t-51.5 -56.5 q-43 -55 -65 -131q-4 -14 -5 -76q-1 -36 -1 -83v-66q1 -88 3.5 -188.5t4.5 -191.5t3 -162t1 -95q-1 -29 -1 -57v-29v-29q0 -28 -1 -57q-2 -29 -4.5 -54.5t-12.5 -60.5q-8 -20 -52 -35.5t-96 -16.5h-6q-49 0 -96 15q-49 17 -69 60q-20 111 -27 222q-4 68 -4 137q0 42 2 85z M483 319q-8 -17 -8 -30q0 -22 25 -31q9 -4 21 -4h9q17 2 33.5 9t29.5 18.5t15 23.5q8 29 10.5 60.5t6.5 68.5q-53 -23 -91 -54.5t-51 -60.5z" />
<glyph unicode="q" horiz-adv-x="1304" d="M4 582q27 113 80 205t162 145q10 2 20 12q25 20 49.5 25.5t49 2.5t48 -13.5t46.5 -18.5q12 -6 20 -25.5t19 -35.5q23 113 44 164t46 55q23 4 44 4t44 2q55 0 59 -62q2 -41 5 -81.5t5 -81.5q-3 -43 -3 -83q0 -89 16 -158q22 -99 59 -163.5t80 -96.5t78 -38q29 -4 56.5 0 t49.5 20q37 23 73 47.5t73 49.5q16 10 31.5 20t37.5 15q8 -8 8 -11t-6 -10q-10 -14 -24 -37.5t-39 -50.5t-61.5 -54.5t-94.5 -47.5q-53 -16 -99 -17h-3q-45 0 -96 15q6 -27 12 -52q14 -51 19.5 -102t5.5 -105q0 -37 -6.5 -74.5t-14.5 -74.5q-10 -53 -22.5 -105.5 t-28.5 -103.5q-23 -72 -55.5 -139.5t-92.5 -114.5q-33 -27 -73.5 -45t-81.5 -25q-16 -2 -31 -2q-31 0 -58 8q-40 13 -68 38.5t-43 62.5t-17 78q-1 22 -1 44q0 72 10 142q13 92 17 187q2 23 11.5 80t18.5 122.5t16 124.5q5 46 5 72v14q-81 -26 -142 -26q-13 0 -25 1 q-68 7 -114 36.5t-74 76.5t-40 101q-6 28 -6 54q0 15 2 30zM163 391q9 -20 34 -22q13 -1 25 -1q23 0 44 4q35 7 58 36q25 35 46 71.5t36 77.5q18 49 29 100.5t24 104.5q4 17 4 29q-59 -45 -114.5 -88.5t-94.5 -104.5q-23 -39 -44.5 -78t-41.5 -80q-9 -18 -9 -32q0 -9 4 -17z M532 -582q53 0 85 22.5t53 63.5q43 82 73.5 169t47.5 180q10 54 10 105q0 69 -18 134q-31 111 -97 217h-16q-4 -41 -10.5 -83t-12.5 -85q-8 -55 -16 -109.5t-17 -109.5q-4 -45 -10 -88t-12 -88q-6 -53 -11.5 -105.5t-15.5 -105.5q-4 -29 -13 -57.5t-20 -59.5z" />
<glyph unicode="r" horiz-adv-x="866" d="M2 706.5q0 28.5 12 53.5q16 29 35 41t49 16q2 1 6 1q8 0 20 -3q18 -4 30 -10q12 -10 21 -21.5t22 -27.5q6 -12 6 -28q1 -20 -9 -45q-18 -46 -53 -73q43 -14 78 -18h7q32 0 71 31q16 16 31.5 36.5t38.5 36.5q47 -16 96 -32.5t98 -32.5q0 -12 -16.5 -50t-39 -83t-45 -89 t-34.5 -69q-20 -39 -40.5 -78t-41.5 -78q-4 -6 -18.5 -34.5t-34 -62.5t-39 -66.5t-31.5 -47.5q-16 -25 -10 -41t35 -16q25 2 49 8t45 19q143 92 256 209.5t205 261.5q4 10 9 19t9 20q4 10 11.5 20t15.5 10q20 -22 20 -41q0 -8 -4 -16q-12 -26 -24 -45q-18 -33 -41 -70 t-62 -89t-103.5 -121.5t-166.5 -168.5q-77 -56 -147 -74q-40 -10 -82 -11q-31 0 -64 6q-53 10 -95 39.5t-57 95.5q-11 52 -11 101q0 119 63 226q29 51 57.5 100.5t56.5 98.5q6 12 7 18q-35 20 -67 38t-63 38q-12 8 -22 20.5t-21 24.5q-18 25 -18 53.5zM59 731q-1 -29 11 -57 q11 -27 22 -27h2q6 2 15 2q12 4 23 21q10 18 16 38q3 9 3 19q1 11 -3 23q-6 20 -27 32q-6 2 -12 2q-14 0 -29 -10q-21 -14 -21 -43z" />
<glyph unicode="s" horiz-adv-x="1107" d="M12 803q-14 45 -14 86q0 46 17 87q32 79 98 146q47 47 103 81t116 63q23 10 48.5 17t53.5 17q43 -25 70.5 -64.5t46.5 -86.5q4 -10 -17.5 -26.5t-55.5 -40t-73.5 -54.5t-75.5 -73t-60.5 -95t-24.5 -119q31 -29 49 -41q47 -35 97 -69.5t97 -71.5q41 -31 80 -78 q18 -25 41 -30t51 2q51 12 101.5 23t103.5 18q59 8 119.5 11t122.5 7q1 -6 1 -12q1 -20 -11 -29q-14 -12 -35 -14q-90 -10 -166 -29.5t-162 -42.5q-6 -2 -16 -6t-20.5 -11.5t-17.5 -14.5t-5 -15q0 -4 9 -28.5t16.5 -62.5t10.5 -85q1 -10 0 -20q0 -37 -8 -72q-4 -12 -20 -44 t-53 -65t-97.5 -58.5t-150.5 -25.5q-18 2 -37.5 12.5t-36.5 24.5q-23 23 -45 46.5t-39 51.5q-18 29 -18 60q-1 9 1 17q6 40 27 75q70 121 187 186q14 8 28.5 16t12.5 31q-23 25 -40.5 44.5t-33.5 39.5q-63 76 -147 111q-12 4 -41 16.5t-63 36t-67.5 61t-56.5 97.5zM305 12 q8 -35 29.5 -58.5t54.5 -25.5h6q31 0 55 18q26 20 33 54q14 51 14 103v13q-2 59 -16 120q-14 -6 -46 -22.5t-63.5 -44.5t-51.5 -67q-16 -30 -16 -68q0 -10 1 -22z" />
<glyph unicode="t" horiz-adv-x="1132" d="M1 1020q1 26 1 55q50 5 100 5q48 0 98 -5q98 -10 203 -14q27 90 54.5 181t56.5 183q31 -10 58.5 -19t54.5 -20q53 -20 81 -71q22 -40 23 -83q0 -12 -2 -24q-6 -35 -10 -71.5t-8 -77.5q106 -18 210.5 -38t211.5 -40q-25 -31 -67 -54.5t-69 -37.5q-47 -24 -95 -24 q-10 0 -20 1q-35 4 -71 4q-24 0 -47 -2q-14 -2 -27.5 -2t-27.5 -4q-33 -6 -37 -43q-4 -20 -16.5 -67t-29 -106.5t-36 -126t-36.5 -126t-29.5 -105.5t-14.5 -67q-6 -33 -15.5 -63.5t-13.5 -63.5q-4 -29 -5.5 -59.5t7.5 -61.5q15 -3 30 -3q44 0 77 28q29 25 56.5 51.5 t55.5 52.5q111 104 177 232q29 53 61.5 103t67.5 104q10 -12 19 -21.5t14.5 -18.5t6.5 -20.5t-6 -27.5q-20 -53 -47.5 -99.5t-70.5 -109.5q-8 -6 -29 -33t-51.5 -63.5t-68.5 -79.5t-81 -81t-88 -67t-90 -37q-12 -1 -24 -1q-28 0 -59 6q-44 10 -84 32.5t-70.5 57t-42.5 81.5 q-14 49 -16 101q-1 20 -1 39q0 32 2 63q8 72 22.5 142.5t30.5 142.5q16 76 35 150.5t35 150.5q4 10 4 18.5t2 12.5q-47 -4 -89 -7.5t-83 -5.5q-27 -1 -54 -1h-27q-40 1 -81 30q-4 16 -7 34.5t-5 37.5q-3 22 -3 43v10z" />
<glyph unicode="u" horiz-adv-x="1091" d="M5 375q9 82 38 162q31 86 65.5 170t67.5 170q6 12 21.5 31.5t36 36t38.5 24.5q11 5 20 5q6 0 11 -3q29 -16 58.5 -27.5t58.5 -28.5q25 -10 35 -32q6 -18 11 -48t9 -61t6 -55.5t2 -30.5q-8 -66 -28.5 -129t-46.5 -125q-23 -59 -47.5 -116.5t-59.5 -110.5 q-10 -14 -15 -29.5t-16 -36.5q45 10 75 32t52 50q43 55 82 111.5t80 116.5q25 33 61.5 88t71.5 108t61.5 96t30.5 54q13 32 46 32h6q18 -2 36.5 -1t36.5 -3t25.5 -17t3.5 -28q-8 -29 -22.5 -82t-32 -112.5t-32.5 -112.5t-24 -78q-16 -51 -29.5 -103t-27.5 -104q-4 -6 -5 -18 t7 -18q16 -4 32.5 15t26.5 30q41 47 77 92t75 94q23 29 39 59.5t35 61.5q6 -4 18 -8q15 -5 15 -27q0 -19 -16 -55q-18 -41 -70 -117q-33 -41 -59.5 -83t-59.5 -83q-23 -27 -53 -37q-17 -6 -36 -6q-15 0 -30 4q-84 23 -114 75q-18 31 -19 72q0 26 8 56q4 8 4 17.5t4 21.5 q-8 14 -20.5 9t-26.5 -18.5t-28.5 -31t-22.5 -29.5q-10 -14 -23.5 -32.5t-23.5 -34.5q-27 -33 -73 -64t-100.5 -52.5t-111.5 -26.5q-12 -1 -23 -1q-43 0 -81 15q-84 41 -103 139q-10 55 -10 108q0 30 3 60z" />
<glyph unicode="v" horiz-adv-x="1128" d="M0 818q-1 13 -1 26q0 55 13 119q12 0 22 1h5q8 0 16 -3q61 -29 117.5 -66t87.5 -104q27 -55 49.5 -141.5t40 -171.5t28.5 -149.5t11 -74.5q59 47 97 99.5t61 113.5q33 90 63.5 179t63.5 181q20 52 77 52q26 0 60 -11v-317q1 -89 55 -117q21 -11 45 -10q38 0 84 27 q12 10 24.5 19t24.5 19q10 8 19.5 16.5t19.5 12.5q8 4 20.5 5t16.5 -3q4 -10 6 -22q1 -4 1 -8q0 -7 -3 -13q-6 -12 -17 -21.5t-24 -15.5q-37 -23 -88 -43q-31 -14 -65 -16h-14q-26 0 -53 5q-34 7 -65.5 24.5t-56.5 44.5q-6 8 -13 16.5t-17 20.5q-51 -106 -116 -193.5 t-142 -165.5q-10 -10 -20.5 -21.5t-20.5 -21.5q-12 -10 -32 -17t-39 -11q-10 -2 -19 -2q-10 0 -20 2q-20 4 -36 14q-10 6 -39.5 45t-66.5 112.5t-77 186t-71 266.5q-8 66 -12 132z" />
<glyph unicode="w" horiz-adv-x="1755" d="M2 272q2 74 5 149t11 146q8 76 20.5 151t24.5 150q4 18 10.5 37t10.5 39q38 15 72 15q22 1 42 -5q54 -16 103 -45q20 -12 29 -39q12 -29 18 -89t8 -135q1 -50 1 -102v-52q-1 -80 -3 -149t-4 -118t-2 -59q0 -31 2 -78t6 -95t13.5 -87t23.5 -51q39 23 58.5 54.5t29.5 63.5 q29 104 52.5 208t46.5 208q0 2 1 25.5t9 51.5t30.5 53.5t65.5 29.5q47 -16 49 -78q8 -78 27.5 -154.5t38.5 -154.5q10 -35 21.5 -70t41.5 -61q39 18 56 61q29 94 55 187.5t55 187.5q14 43 25.5 111.5t19.5 134t13.5 116t5.5 56.5q2 16 3 33.5t9 29.5q29 35 65 51q11 4 21 4 q14 0 22 -8q16 -14 19 -32q10 -217 45 -355.5t76 -217.5t81 -110.5t58 -33.5q37 -6 61.5 10t40.5 45q23 37 41.5 69.5t34.5 73.5q10 20 28.5 34t29.5 7q27 -17 27 -56q0 -36 -32 -79q-16 -23 -31.5 -48.5t-31.5 -49.5q-49 -64 -113 -78q-26 -6 -53 -5q-41 0 -84 13 q-39 14 -73.5 34t-69.5 40q-10 4 -19.5 12t-17.5 13q-6 -8 -28.5 -48t-51.5 -89.5t-58.5 -96.5t-48.5 -72q-32 -41 -74 -54q-22 -7 -47 -7q-23 0 -49 6q-53 14 -104 30.5t-92 57.5q-4 -6 -2 -1t2 1q-4 -57 -33 -111.5t-76 -93.5q-13 -21 -85 -37q-30 -7 -67 -6 q-51 0 -114 13q-92 23 -162.5 86t-97.5 157q-15 63 -29 127q-12 56 -12 112v17z" />
<glyph unicode="x" horiz-adv-x="1490" d="M0 973q16 4 26.5 6t20.5 4q38 3 75 3q84 0 164 -16q116 -22 226 -71q16 -6 45 -25.5t57.5 -42t52 -42t29.5 -27.5q12 -14 20.5 -31.5t18.5 -36.5q51 29 106.5 57.5t106.5 63.5t97.5 77t99.5 85q4 -12 11 -21.5t5 -17.5q-4 -35 -13 -66.5t-38 -62.5q-55 -57 -117.5 -104.5 t-118.5 -102.5q-23 -23 -47 -40t-47 -34q-2 -20 -2 -40q0 -44 10 -82q14 -56 32 -102t37.5 -82t27.5 -60q10 -35 31.5 -54.5t48.5 -35.5q8 -4 19 -3t22 5q25 12 49 25.5t45 31.5q80 76 156.5 153.5t138.5 170.5q20 29 49 47q6 4 17.5 3t19.5 -5q4 -4 7 -14q2 -6 2 -11 q0 -3 -1 -6q-10 -25 -22.5 -48.5t-26.5 -45.5q-53 -74 -111.5 -139.5t-134.5 -116.5q-4 -4 -42 -31t-96 -52q-60 -24 -132 -31q-12 -1 -23 -1q-61 0 -123 31q-74 41 -134 94t-101 129q-10 16 -21.5 33.5t-25.5 38.5q-10 -8 -20.5 -14.5t-20.5 -12.5q-18 -12 -60.5 -38.5 t-90.5 -54.5t-91 -52.5t-61 -34.5q-22 -11 -43 -11l-27 4q-35 11 -66 29q16 16 63.5 61.5t105 95.5t112.5 97t90 66q10 4 17.5 10t17.5 12q-10 33 -17.5 66t-23.5 61q-29 53 -59.5 104.5t-63.5 104.5q-29 47 -74 69.5t-98 27.5q-16 2 -26.5 3t-18.5 6t-17.5 15.5t-23.5 28.5 z" />
<glyph unicode="y" horiz-adv-x="1404" d="M20 383q-19 86 -19 171q0 99 26 198q23 92 55.5 178t60.5 174q10 27 28.5 39t37.5 28q31 27 64 27q13 0 26 -4q27 -6 52.5 -8t49.5 -12q37 -14 47.5 -34t6.5 -59q-4 -23 -5 -46t-8 -46q-4 -12 -11 -64.5t-16 -123t-18.5 -152.5t-17.5 -155.5t-14.5 -129t-6.5 -73.5 q-2 -23 3.5 -41.5t21.5 -34.5q29 2 52.5 16.5t45.5 30.5q70 45 113 91t67.5 88t38 76t23.5 54q27 53 53.5 107.5t54.5 107.5q6 10 22.5 19.5t36 15.5t39 8t32.5 -2q18 -10 30 -32q6 -14 8 -29.5t5 -32.5q2 -18 5 -48t7 -58.5t6 -51t2 -28.5q-4 -53 -8 -108.5t-8 -116.5 q39 27 74.5 47t68.5 45q45 37 96 57.5t107 30.5q29 6 37 -2t12 -23q0 -4 -7 -11t-17.5 -14.5t-20.5 -14.5t-15 -7q-16 -2 -48.5 -19.5t-68.5 -40t-70 -44t-48 -33.5q-33 -25 -61.5 -52.5t-57.5 -56.5q-4 -4 -6 -12l-4 -16q-16 -68 -32.5 -135.5t-33.5 -135.5 q-8 -31 -12 -62.5t-14 -60.5q-10 -31 -11.5 -61.5t-11.5 -58.5q-16 -53 -20 -107.5t-25 -107.5q-18 -53 -30.5 -107.5t-34.5 -105.5q-20 -41 -50 -79t-61 -73q-10 -10 -26.5 -12t-32.5 -2q-29 0 -56.5 1t-54.5 9q-41 12 -83 27.5t-81 35.5q-68 35 -90 78q-13 25 -13 64 q0 28 7 63q4 23 18.5 59.5t32 73.5t31.5 67t18 38q57 100 123 193t152 171q45 39 74 81q26 37 26 91v15q0 18 3 36.5t5 34.5q-29 -10 -54.5 -17t-49.5 -17q-10 -2 -18.5 -4.5t-16.5 -6.5q-70 -28 -151 -28q-4 0 -8 1q-85 1 -162.5 30.5t-137 89t-78.5 149.5zM350 -735 q-1 -6 -1 -12q0 -35 32 -50q14 -6 26 -6q8 0 14 2q17 6 32 23q10 14 21 26.5t18 28.5q35 90 67.5 178t61.5 180q18 57 26.5 117t20.5 119q-55 -53 -100.5 -112.5t-84.5 -125.5q-2 -4 -17 -32.5t-35.5 -66.5t-39 -79t-26.5 -67q-10 -29 -11.5 -61t-3.5 -62z" />
<glyph unicode="z" horiz-adv-x="1159" d="M1 -486v10q0 58 34 124q41 53 78 108.5t82 104.5q80 86 163.5 168t167.5 166q20 23 49 38q49 36 49 80q0 27 -18 58q-8 14 -42 22t-71.5 13.5t-68.5 7.5l-31 2q-22 6 -43 6q-16 0 -30 -3q-36 -7 -72 -9q-23 -2 -43.5 2t-40.5 8q-16 4 -26.5 30.5t-2.5 45.5q20 47 39 93 t49 89q41 57 91.5 101t99.5 89q8 6 15 14.5t17 20.5q-29 4 -54 5t-48 3q-39 4 -71.5 14.5t-57.5 47.5q-18 29 -45 52.5t-55 49.5q23 19 44 19h2q20 0 42 -11q18 -10 60 -14q43 -4 95 -5h53h55q56 1 104 3t82 2t42 -4q39 -20 75 -43t73 -45q16 -8 16 -25l1 -102 q0 -48 -28 -94q-14 -27 -30.5 -50.5t-32.5 -48.5q-2 -4 -26.5 -26.5t-56.5 -50t-62.5 -54t-42.5 -37.5q20 -18 37.5 -34.5t33.5 -34.5t31.5 -38t32.5 -42q29 18 55.5 35.5t52.5 36.5q59 39 123 59.5t131 36.5q7 1 13 1q33 0 69 -32q-25 -10 -43 -17t-35 -9q-55 -2 -101 -26 t-91 -52q-41 -29 -82 -59.5t-88 -65.5q10 -29 19.5 -58.5t17.5 -58.5q4 -23 11 -47.5t3 -48.5q-4 -59 -11 -116.5t-18 -115.5q-16 -104 -64 -194t-120 -168q-35 -37 -67.5 -76t-65.5 -80q-31 -37 -71 -54t-81 -17q-35 0 -73.5 15t-67.5 38q-18 16 -50 52t-54.5 84.5 t-25.5 110.5zM137 -508q4 0 13 4q0 2 30.5 21.5t70.5 44t75.5 49t44.5 37.5q39 49 60.5 75.5t43.5 55.5q63 82 84.5 171t44.5 189q-4 2 -7 4t-7 7q-23 -27 -47.5 -51.5t-46.5 -51.5q-68 -72 -135.5 -143.5t-133.5 -145.5q-23 -25 -40 -68.5t-28.5 -85.5t-17.5 -75 q-4 -25 -4 -33v-4z" />
<glyph unicode="{" horiz-adv-x="589" d="M2 514q2 39 45 53q70 25 83 70t3 104q-8 39 -14 78t-19 78q-27 80 -21.5 156.5t40.5 154.5q23 49 59.5 76t93.5 21q39 -4 76 -8.5t76 -24.5q-8 -14 -13 -24.5t-12 -20.5q-2 -4 -6 -6t-8 -7q-4 2 -11 3.5t-12 5.5q-31 23 -58.5 15.5t-55.5 -26.5q-47 -35 -31 -96 q12 -47 25.5 -94t25.5 -94q23 -82 44.5 -164t9.5 -170q-4 -35 -10.5 -65.5t-37.5 -53.5q43 -47 80 -92q27 -31 30 -70t5 -75q4 -63 3 -126t3 -126q0 -37 2 -75t6 -75t37 -59.5t84 -22.5q23 0 39.5 -4t26.5 -31q-12 -16 -25.5 -31.5t-29.5 -33.5q-88 6 -166 34.5t-144 90.5 q-23 20 -37 44.5t-14 55.5q-2 80 -2 160t-2 160q-2 41 -2 79.5t-2 79.5q0 23 -13.5 32t-31.5 18q-23 8 -44.5 16t-39.5 22q-37 29 -35 68z" />
<glyph unicode="}" horiz-adv-x="602" d="M0 1311q57 -4 112.5 -5t108.5 -8q59 -6 94 -43.5t58 -87.5q8 -16 14 -32.5t12 -32.5q8 -25 17.5 -48.5t9.5 -47.5q2 -53 -1 -106.5t-5 -106.5q-2 -37 -3 -75t3 -77q2 -68 90 -90q25 -4 50.5 -8t41.5 -31q-14 -27 -29.5 -49.5t-52.5 -30.5q-45 -10 -60.5 -45t-10.5 -94 q4 -90 8 -177t6 -177q4 -121 -45 -224q-16 -37 -56 -56t-77 -5q-39 16 -72 39.5t-37 77.5q66 16 90.5 62t22.5 108q-2 41 -4 79.5t-6 79.5q-14 104 -13.5 206t47.5 198q-4 14 -6 16q-49 37 -74.5 82t-36 94t-9.5 101.5t6 105.5q6 72 3 140.5t-28 138.5q-10 33 -29.5 51 t-54.5 22q-25 4 -49.5 12.5t-34.5 43.5z" />
<glyph unicode="&#xa1;" horiz-adv-x="325" d="M0 1221q23 8 42 16t42 12q20 4 33.5 4t23 -5t17.5 -17t18 -33q0 -2 1 -3t1 -3q10 -14 18.5 -27.5t16.5 -29.5q4 -4 2 -12.5t-6 -12.5q-14 -16 -28.5 -29.5t-28.5 -27.5q-41 6 -68 17t-44 30.5t-26.5 48.5t-13.5 72zM20 238q-2 78 7.5 156.5t13.5 156.5q4 86 8 173t8 179 q25 -4 45.5 -6t40.5 -8q35 -10 60.5 -26.5t36.5 -61.5q12 -59 24 -118.5t10 -121.5q0 -12 2 -18q16 -47 23.5 -94.5t10.5 -95.5t5 -96t9 -95q2 -20 -3.5 -40t-9.5 -42q-8 -61 -13 -123.5t-15 -124.5q-4 -29 -18.5 -55.5t-31.5 -52.5q-4 -10 -17 -14.5t-28.5 -4.5t-31 5 t-27.5 14q-59 43 -72 112q-4 14 -5 27.5t-3 30.5q-8 86 -17 172t-12 172z" />
<glyph unicode="&#xa2;" horiz-adv-x="731" d="M0 167.5q0 70.5 21.5 135t59.5 117.5t81 84q20 16 44.5 25.5t53.5 25.5q-14 53 -29.5 107.5t-31.5 113.5q82 -20 133 -59t80 -113q12 -35 50 -60.5t68 -54.5q27 -23 52.5 -46t58.5 -52q-23 -16 -36 -28.5t-30 -20.5q-47 -25 -94 -48.5t-96 -43.5q-61 -27 -101 -73 t-77 -97q-16 -23 -8 -40t30 -26q29 -10 61 -16t60 -6q68 2 135.5 7t132.5 9q25 2 51.5 1t61.5 -1q-39 -66 -80 -112t-119 -50q12 -35 23.5 -66.5t26.5 -68.5q-10 -29 -23.5 -63.5t-28.5 -71.5q-57 16 -85.5 51t-47.5 76q-16 39 -41.5 57.5t-70.5 22.5q-150 16 -213 158 q-10 23 -18.5 45t-18.5 45q-35 66 -35 136.5z" />
<glyph unicode="&#xad;" d="M0 571q37 -18 76 -24t76.5 -6t76.5 1t76 -3q76 -10 151.5 -16.5t151.5 -16.5q16 -2 32.5 -8t33.5 -11v-24q-39 -10 -78 -25.5t-80 -13.5q-35 2 -67.5 -3t-64.5 -11.5t-64.5 -11.5t-65.5 -7q-29 -4 -55.5 -3t-48.5 18q-33 23 -66 44t-61 48q-12 10 -15.5 30.5t-7.5 42.5z " />
<glyph unicode="&#xb0;" horiz-adv-x="649" d="M0 934q57 -18 101 -17t89 13q51 14 104.5 18t108 4t108.5 -2t107 -4q4 -2 10.5 -8t20.5 -18q-41 -18 -77.5 -40t-71.5 -42.5t-72 -38t-78 -27.5q-182 -43 -311 80q-12 12 -18.5 32.5t-20.5 49.5zM81 1293.5q-11 58.5 5 117.5t66 102q37 33 75.5 38t83.5 1l6 -24 q4 -16 5 -27q102 -2 167 -84q12 -14 29 -25.5t33 -23.5q43 -41 2 -84q-43 -43 -74 -88q-47 -72 -102 -85t-146 11q-61 18 -100 65.5t-50 106zM225 1311q45 -2 76.5 8t56.5 55q-23 25 -45 51.5t-45 55.5l-18 -6q-6 -41 -12.5 -81t-12.5 -83z" />
<glyph unicode="&#xb7;" horiz-adv-x="301" d="M4 526q-8 29 1 53.5t32 41.5q41 29 84 45t90 30q39 10 62.5 -10t27.5 -61q0 -27 -1 -52.5t-3 -54.5q-4 -45 -37 -76l-4 -4q-10 -25 -21.5 -36t-28 -16t-37.5 -3t-54 6q2 0 -9.5 2t-29 14.5t-38 40t-34.5 80.5z" />
<glyph unicode="&#xba;" horiz-adv-x="649" d="M0 934q57 -18 101 -17t89 13q51 14 104.5 18t108 4t108.5 -2t107 -4q4 -2 10.5 -8t20.5 -18q-41 -18 -77.5 -40t-71.5 -42.5t-72 -38t-78 -27.5q-182 -43 -311 80q-12 12 -18.5 32.5t-20.5 49.5zM81 1293.5q-11 58.5 5 117.5t66 102q37 33 75.5 38t83.5 1l6 -24 q4 -16 5 -27q102 -2 167 -84q12 -14 29 -25.5t33 -23.5q43 -41 2 -84q-43 -43 -74 -88q-47 -72 -102 -85t-146 11q-61 18 -100 65.5t-50 106zM225 1311q45 -2 76.5 8t56.5 55q-23 25 -45 51.5t-45 55.5l-18 -6q-6 -41 -12.5 -81t-12.5 -83z" />
<glyph unicode="&#xbf;" horiz-adv-x="593" d="M16 68q20 78 56.5 146.5t95.5 123.5q23 23 33 53q12 49 23.5 99.5t17.5 101.5q10 82 15 163t9 165q2 27 1 55t-1 65q49 -16 92 -31.5t84 -31.5q8 -4 13.5 -14.5t7.5 -20.5q10 -39 22.5 -77t16.5 -79q6 -63 16 -124.5t12 -126.5q4 -59 -6 -116t-16 -116 q-2 -16 -12.5 -31.5t-14.5 -31.5q-20 -55 -58 -96.5t-83 -75.5q-35 -29 -57.5 -66t-26.5 -86q-4 -39 -18 -76q-16 -41 1 -77.5t46 -65.5q2 -4 10 -8q47 -29 75.5 -42.5t50 -11t42 19.5t53.5 48q18 16 36.5 36.5t41.5 45.5q-4 -18 -5 -29.5t-5 -21.5q-8 -29 -16.5 -54.5 t-18.5 -54.5q-4 -14 -18.5 -29.5t-33 -27.5t-38 -20.5t-33.5 -4.5q-78 16 -151.5 42t-133.5 83q-92 82 -123.5 179.5t-1.5 220.5zM229 1268q35 29 37 67.5t4 79.5q10 0 18.5 1t14.5 -3q41 -27 82 -53t76 -51q-10 -23 -16.5 -41.5t-10.5 -34.5q-14 -57 -74 -70 q-61 -12 -92 41q-10 16 -19 31.5t-20 32.5z" />
<glyph unicode="&#xc0;" horiz-adv-x="2023" d="M53 920q27 47 53.5 91t57.5 85q41 53 95 83.5t120 41.5q35 4 69.5 12t69.5 12q29 4 53.5 -1t53.5 -30q29 -23 51 -50t39 -70q0 -12 -16.5 -28.5t-4.5 -47.5q4 -10 -6 -22.5t-27.5 -20.5t-38 -11t-32.5 3q-16 8 -30.5 19t-29.5 24q-29 27 -67.5 33t-73.5 -11 q-37 -20 -68.5 -44.5t-54.5 -61.5q-35 -66 -69.5 -133.5t-71.5 -133.5q-16 -29 -12 -51t26 -49q14 31 35 50.5t45.5 32.5t52 21.5t54.5 16.5q41 10 79.5 3t69.5 -44q10 -16 27 -23q59 -29 97 -80t81 -96q2 -4 1 -8t-1 -12q-10 -2 -19.5 -2h-19.5q-23 -2 -41 -7t-41 -16 q-41 -20 -86 -26.5t-92 -14.5q-20 -4 -41 -1t-45 3q2 -45 25.5 -68.5t56.5 -33.5q51 -14 115.5 -17.5t130 7t128 37t109.5 73.5q-16 33 -32.5 65t-32.5 66q-18 39 -9 75t41 61q72 55 142.5 81.5t154.5 -14.5q8 -35 16.5 -64.5t12.5 -60.5q4 -45 -14.5 -82t-42.5 -71 q-10 -12 -21.5 -23.5t-25.5 -28.5q31 -14 57.5 -12t48.5 14q92 51 169 120t130 163q25 43 56.5 57.5t84.5 8.5q8 -37 15.5 -74t15.5 -76q2 -4 1 -7t1 -7q14 -184 193 -139q39 10 74.5 31.5t70.5 41.5q12 10 22.5 23.5t20.5 27.5q4 -4 7 -9t7 -9q-18 -27 -36.5 -53.5t-41 -49 t-50 -38t-66.5 -19.5q-113 -12 -196 29t-122 166q-33 -49 -63.5 -98.5t-64 -92.5t-75.5 -77.5t-98 -53.5q-63 12 -126.5 24.5t-129.5 26.5q-41 -31 -86 -61.5t-90 -62.5q-47 -35 -100 -39t-107 -4q-256 0 -387 223q-33 55 -64.5 109.5t-64.5 109.5q-106 184 -2 369zM276 442 q35 0 64 -1t57 1q27 2 31 17.5t4 36.5q-4 47 -45 36q-35 -6 -66 -21.5t-45 -68.5zM856 522q8 -35 22.5 -64.5t49.5 -51.5q47 33 72.5 73t15.5 99q-31 12 -50.5 17t-35 0t-31.5 -22.5t-43 -50.5z" />
<glyph unicode="&#xc1;" horiz-adv-x="2023" d="M0 512q4 4 7 9t7 9q10 -14 19.5 -27.5t23.5 -23.5q35 -20 71 -41.5t75 -31.5q178 -45 192 139q2 4 1 7t1 7q8 39 15.5 76t15.5 74q53 6 85 -8.5t56 -57.5q53 -94 130 -162.5t169 -120.5q23 -12 49.5 -14t57.5 12q-14 16 -25.5 27.5t-21.5 24.5q-25 35 -43.5 71.5 t-14.5 81.5q4 31 12.5 60.5t16.5 64.5q84 41 154.5 14.5t142.5 -81.5q33 -25 42 -61t-9 -75q-16 -35 -32.5 -66.5t-33.5 -64.5q47 -47 109.5 -73.5t128 -37t129 -7t115.5 17.5q35 10 58 33.5t26 68.5q-25 0 -45.5 -3t-41.5 1q-47 8 -93 14.5t-87 26.5q-20 10 -38.5 15.5 t-41.5 7.5h-19t-20 2q0 8 -1 12t1 8q43 45 81 96.5t98 79.5q16 6 26 23q31 37 69 44t79 -3q27 -8 54.5 -16.5t52 -21.5t45 -32.5t34.5 -50.5q45 49 16 100q-37 66 -71.5 133.5t-71.5 133.5q-20 37 -52 61.5t-69 44.5q-35 16 -74.5 10t-68.5 -32q-14 -12 -28.5 -23.5 t-30.5 -19.5q-12 -6 -32 -3t-37 11t-28.5 20.5t-7.5 22.5q6 14 4 26.5t-7 20.5t-11 15t-6 14q16 43 39.5 70.5t52.5 49.5q29 25 53.5 30t52.5 1q35 -4 70 -12t70 -12q66 -10 120 -41t93 -84q31 -41 58.5 -85t53.5 -91q104 -184 -2 -369q-33 -55 -64.5 -109.5t-64.5 -109.5 q-131 -223 -387 -223q-53 0 -106.5 4t-100.5 39q-47 33 -91 63.5t-85 60.5q-66 -14 -129 -26t-127 -25q-55 18 -97 53t-76 78t-64.5 92.5t-63.5 98.5q-39 -125 -122 -166t-195 -29q-39 4 -67 19.5t-50.5 38t-41 49t-36.5 53.5zM1008 578q-10 -59 14.5 -99t71.5 -73 q35 23 50 52t21 64q-25 33 -41 50.5t-31.5 22.5t-35 0t-49.5 -17zM1591 496q0 -20 4 -36t31 -18q29 -2 57.5 -1t63.5 1q-14 53 -45 68.5t-66 21.5q-41 10 -45 -36z" />
<glyph unicode="&#xc2;" horiz-adv-x="1599" d="M0 756q0 53 11.5 103t21.5 104q12 59 44 109t75 93q12 10 24 21.5t23 25.5q14 20 33.5 27.5t41.5 9.5q72 2 145 5t144 6q33 2 62.5 -5.5t54.5 -33.5q14 -16 31 -21q23 -12 48 -21.5t42 -25.5q33 -37 59.5 -78t57.5 -84q-41 -27 -62.5 -61.5t-42.5 -75.5q-20 -43 -57 -82 t-90 -55q-33 -10 -75 2t-85 47q41 -16 71.5 -12t55 19t45 40t39.5 51q12 16 24.5 33.5t22.5 32.5q-6 41 -22.5 72.5t-40 57t-51 47t-56.5 44.5q-31 25 -51.5 24t-55.5 -26q-68 -49 -129 -106.5t-96 -135.5q-39 -90 -33 -188q4 -68 4 -136.5t35 -131.5q16 -31 32.5 -64 t39.5 -59q35 -41 81 -49.5t97 6.5q125 35 211 121q61 59 132 75.5t151 5.5q70 -8 112 -65q18 -23 34 -48.5t36 -47.5q18 -23 40.5 -42t47.5 -44q41 37 72.5 78.5t64.5 82.5t69 78t85 64q12 -4 20.5 -17.5t3.5 -36.5q-8 -35 -15 -68.5t-17 -68.5q-4 -18 -11.5 -37.5 t-13.5 -38.5q-41 -135 -192 -129q-63 2 -113.5 31t-93.5 74q-29 29 -54.5 60.5t-54.5 62.5q-10 10 -22.5 18t-28.5 21q-39 -39 -75 -76t-77 -72q-53 -45 -105 -86t-122 -61q-72 -23 -130 -24t-109.5 17.5t-98.5 55.5t-92 92q-47 59 -85 124t-58 136q-16 57 -22.5 116.5 t-6.5 119.5z" />
<glyph unicode="&#xc3;" horiz-adv-x="1599" d="M2 489q-4 23 4 36.5t19 17.5q49 -27 85.5 -64t68.5 -78t64.5 -82.5t73.5 -78.5q25 25 47.5 44t41.5 42q18 23 33.5 48t33.5 48q45 57 115 65q80 10 149.5 -6t130.5 -75q90 -88 213 -121q49 -14 96.5 -6t82.5 49q23 27 38 59.5t31 63.5q18 31 25.5 64.5t10.5 67t2 67.5 t1 69q4 47 -4 96t-29 92q-35 78 -96 135.5t-129 106.5q-33 25 -54.5 26t-51.5 -24q-29 -23 -56.5 -44.5t-50.5 -47t-40 -57t-23 -72.5q20 -29 49 -66q18 -27 38.5 -51.5t45 -39.5t54.5 -19t71 12q-41 -35 -83 -47t-77 -2q-53 16 -90 55t-58 82q-18 41 -39.5 76t-62.5 61 q29 43 55.5 84t59.5 78q16 16 42.5 25.5t49.5 21.5q16 6 31 21q23 27 53.5 34t62.5 5q72 -2 143.5 -5.5t143.5 -5.5q25 -2 43 -9t35 -28q10 -14 22.5 -25t24.5 -22q43 -43 73.5 -93t45.5 -109q10 -53 20 -103.5t10 -103.5q2 -59 -4 -118.5t-22 -117.5q-23 -72 -59.5 -136.5 t-86.5 -123.5q-47 -55 -93 -92t-97 -55.5t-109.5 -17.5t-130.5 24q-68 20 -121 61t-106 86q-39 35 -75 72t-77 76q-16 -12 -27 -20.5t-22 -18.5q-29 -31 -55.5 -62.5t-54.5 -60.5q-41 -45 -91.5 -73.5t-115.5 -31.5q-72 -4 -122 29t-71 100q-6 18 -12 38t-10 38 q-10 35 -18.5 69t-14.5 68z" />
<glyph unicode="&#xc8;" horiz-adv-x="1744" d="M18 598q-35 100 5 197q57 135 153 225t238 125q72 18 150.5 6t146 -54t113.5 -113t55 -171q4 -61 5 -121.5t-3 -122.5q-4 -55 4 -90t30.5 -55.5t60.5 -29.5t97 -13q16 -2 33 3t35 9q-16 66 3 124t44 116q35 84 108 67q45 -10 71 -40.5t26 -75.5q-2 -59 -17.5 -113.5 t-62.5 -97.5q-12 -12 -22.5 -29.5t-22.5 -36.5q31 -23 63.5 -33t66.5 -12t67.5 3t66.5 11q72 14 120 60.5t81 114.5q20 -51 -2 -99q-20 -41 -41 -77.5t-68 -53.5q-43 -16 -86 -19t-90 1q-63 6 -120.5 20.5t-111.5 65.5q-31 -55 -76.5 -65.5t-97.5 -6.5q-51 4 -92 27.5 t-76 60.5q-98 104 -132.5 228t-34.5 260q0 31 -2.5 60.5t-6.5 57.5q-12 100 -69.5 138t-149.5 26q-119 -16 -207 -78.5t-147 -167.5q-16 -31 -26.5 -65.5t-10.5 -69.5q-2 -72 35 -110.5t98 -53.5q25 -6 55.5 2.5t58 27t46 43t22.5 50.5q4 31 -10 63t-24 62q-2 8 -10.5 14.5 t-20.5 18.5q29 0 47 1t37 -1q35 -2 48 -14.5t17 -46.5q4 -29 9.5 -58.5t9.5 -58.5q4 -33 -8.5 -59.5t-34.5 -49.5q-33 -35 -72 -55t-80 -37q-43 -16 -86 -5t-73 34q-37 27 -76 56.5t-56 80.5zM1251 436q47 29 58.5 62t-2.5 92q-47 -31 -52.5 -70t-3.5 -84z" />
<glyph unicode="&#xc9;" horiz-adv-x="1744" d="M12 451q33 -68 81 -114t120 -61q33 -6 66.5 -11t67.5 -3t66.5 12.5t65.5 32.5q-14 18 -24.5 35.5t-22.5 30.5q-47 43 -62.5 97t-15.5 114q-2 45 25 75.5t70 40.5q74 16 110 -67q23 -57 42.5 -115.5t2.5 -124.5q18 -4 35 -9t33 -3q57 4 96 13t61.5 29.5t30.5 55.5t4 90 q-4 61 -2 122t6 122q8 100 54.5 171t113 113t145.5 54t150 -6q141 -35 237.5 -125t153.5 -225q23 -49 23 -98.5t-16 -98.5q-16 -51 -55.5 -81t-78.5 -56q-31 -23 -72.5 -34t-84.5 5t-82 36.5t-70 55.5q-23 23 -36 49.5t-9 59.5l19 117q6 35 18 47t47 14q18 2 37.5 1t46.5 -1 q-12 -12 -19.5 -18.5t-11.5 -14.5q-10 -31 -23.5 -62.5t-8.5 -62.5q2 -27 21 -51t46 -42.5t57.5 -27t55.5 -2.5q63 14 99 53.5t34 110.5q0 72 -35 135q-59 104 -148.5 167t-205.5 79q-92 12 -149.5 -25.5t-71.5 -138.5q-4 -29 -6.5 -58.5t-2.5 -59.5q0 -135 -34.5 -259 t-131.5 -229q-35 -37 -75.5 -60.5t-91.5 -27.5q-53 -4 -99.5 6t-77.5 66q-51 -51 -109.5 -65.5t-121.5 -20.5q-45 -4 -88 -1t-86 19q-47 16 -68.5 53t-42.5 78q-23 47 -2 99zM436.5 498q12.5 -33 59.5 -62q2 45 -4.5 84t-51.5 70q-16 -59 -3.5 -92z" />
<glyph unicode="&#xca;" horiz-adv-x="1607" d="M1 684q3 45 17.5 87t40 75t58.5 45q66 29 135.5 41t142.5 0q94 -16 180.5 -48t167 -75t157.5 -93t153 -106q55 -41 113.5 -70.5t127.5 -41.5q45 -8 82 22q61 53 73.5 127t-28.5 144q-18 31 -35.5 60.5t-27.5 63.5q-16 57 -54 80t-92 25q-23 0 -44 4t-38 29 q10 14 20.5 27.5t20.5 25.5q76 -25 149 -49.5t144 -48.5q18 -4 27 -15q53 -61 87 -133t28 -158q-4 -68 -36 -125t-79 -104q-35 -35 -78 -64.5t-90 -41.5q-70 -20 -139.5 -6t-130.5 53q-94 59 -185.5 120.5t-197.5 98.5q-8 4 -14.5 11t-14.5 11q-23 12 -42 24.5t-42 22.5 t-47.5 18.5t-48.5 16.5q-41 12 -82 25.5t-82 17.5q-59 6 -77.5 -17.5t-2.5 -80.5q6 -29 17.5 -56.5t19.5 -56.5q16 -61 58 -92t100 -45q82 -23 69 60q-4 25 -14 49t-18 47q37 -16 56 -39t28.5 -51.5t10.5 -60t1 -62.5q0 -14 -8.5 -28.5t-18.5 -20.5q-29 -18 -58.5 -34 t-60.5 -30q-29 -14 -56.5 -12t-53.5 26q-61 59 -125 113q-55 41 -94 93.5t-60 117.5q-12 39 -9 84z" />
<glyph unicode="&#xcb;" horiz-adv-x="1607" d="M2 702q-6 86 27.5 158t87.5 133q8 10 26 15q72 25 144.5 49t148.5 49q10 -12 20.5 -25.5t20.5 -27.5q-16 -25 -37.5 -29t-44.5 -4q-53 -2 -91 -24.5t-54 -80.5q-10 -35 -27.5 -64.5t-36.5 -59.5q-41 -70 -28.5 -144t73.5 -127q37 -31 82 -22q70 12 128.5 41.5t113.5 70.5 q76 55 152.5 105.5t157.5 93.5t167 74.5t180 48.5q74 12 143.5 0t135.5 -41q33 -12 58.5 -45t40 -75t17.5 -87t-10 -84q-20 -66 -59 -118t-94 -93q-33 -27 -63.5 -55.5t-61.5 -57.5q-27 -25 -54.5 -26.5t-56.5 12.5q-31 14 -60.5 29.5t-57.5 34.5q-10 6 -18.5 20t-8.5 29 q0 31 1 62.5t10 60t28.5 51t56.5 39.5q-8 -23 -18.5 -47.5t-14.5 -48.5q-12 -82 70 -60q57 14 99 45t59 92q8 29 19 56.5t20 56.5q14 57 -4.5 80.5t-77.5 17.5q-41 -4 -82 -17l-82 -26q-25 -8 -49.5 -16t-46.5 -19q-23 -10 -42.5 -22t-41.5 -25q-8 -4 -14.5 -11t-14.5 -11 q-106 -37 -197.5 -98.5t-185.5 -120.5q-61 -39 -131 -53.5t-139 6.5q-47 12 -90 41.5t-78 64.5q-47 47 -78 104.5t-37 124.5z" />
<glyph unicode="&#xcc;" horiz-adv-x="1736" d="M0.5 700.5q-2.5 116.5 73.5 233.5q35 53 71.5 103t87.5 79q63 37 133 65.5t142 39.5q57 10 102 -6.5t97 -45.5q39 -23 62.5 -70.5t27.5 -88.5q10 -49 5 -95.5t-18.5 -84t-33 -64.5t-37.5 -35q-39 -20 -78 -14t-72 24q-16 8 -33.5 24.5t-30 34t-18.5 35t-2 31.5 q18 16 34.5 7t34 -28.5t35 -40t38.5 -28.5q53 18 64 70.5t-7 111.5q-16 57 -64.5 84t-138.5 27q-92 -25 -140 -89.5t-66.5 -142t-16.5 -157.5t8 -133q6 -72 40 -111t93 -53q98 -27 199 8q117 41 218 104.5t194 145.5q12 12 25 23.5t24 23.5q72 78 156.5 93.5t179.5 -13.5 q25 -8 48 -25.5t40 -37.5q33 -41 49 -90.5t8 -104.5q-4 -27 -3 -53.5t9 -55.5q6 -29 34 -42t54 3q25 12 48.5 24.5t47.5 25.5q4 -6 8.5 -14.5t2.5 -16.5q-10 -51 -27 -94q-4 -10 -15.5 -22.5t-23.5 -16.5q-39 -14 -77 -14.5t-72 24.5q-33 25 -65 52.5t-52 62.5 q-27 47 -51.5 95t-24.5 105q0 12 -6 29q-8 27 -29.5 32t-38.5 -18q-57 -70 -112.5 -141.5t-114.5 -138.5q-45 -51 -94 -93t-104.5 -70t-119 -37t-137.5 3q-41 8 -80.5 15.5t-78.5 21.5q-113 41 -201 113.5t-145 177.5q-63 117 -65.5 233.5z" />
<glyph unicode="&#xcd;" horiz-adv-x="1738" d="M2 381q-2 8 3 16.5t7 14.5q27 -12 50.5 -24.5t46.5 -25.5q29 -16 56.5 -3t33.5 42q12 59 4 109q-8 55 8 104.5t51 90.5q16 20 39 37.5t49 25.5q94 29 179 13.5t155 -93.5q12 -12 24.5 -23.5t24.5 -23.5q92 -82 193.5 -145.5t218.5 -104.5q100 -35 198 -8q59 14 94.5 53 t41.5 111q4 53 6 133t-16.5 157.5t-65.5 142t-139 89.5q-92 0 -140.5 -26.5t-64.5 -84.5q-16 -59 -5 -111t64 -71q18 8 37 28.5t36 40t33.5 29t35.5 -7.5q4 -14 -2.5 -31.5t-18.5 -35t-29.5 -33.5t-33.5 -25q-35 -18 -74 -24t-76 14q-18 8 -37.5 35t-34 64.5t-19.5 84 t5 95.5q4 41 28.5 89t61.5 70q53 29 97 45.5t102 6.5q72 -10 141.5 -39t132.5 -66q53 -29 90 -79t72 -103q76 -117 74 -233.5t-66 -233.5q-57 -104 -145 -177t-201 -114q-39 -14 -79 -21.5t-81 -15.5q-74 -12 -137 -3t-118.5 37t-104.5 70t-94 93q-59 68 -114.5 139.5 t-115.5 140.5q-16 23 -36.5 18t-30.5 -32q-4 -20 -4 -29q-2 -57 -26 -105t-52 -95q-18 -35 -50 -62.5t-65 -52.5q-35 -25 -74 -25t-75 15q-12 4 -23.5 16t-17.5 23q-16 43 -27 94z" />
<glyph unicode="&#xce;" horiz-adv-x="1935" d="M4 684q4 27 22.5 55.5t45 52t59.5 40t64 20.5q57 4 115.5 0t111.5 -31q37 -18 43 -35.5t-8 -58.5q-4 -14 -6 -31.5t-7 -40.5q-20 -4 -44.5 -10t-59.5 -16q10 31 18.5 55.5t16.5 50.5q-47 4 -90 -2t-78 -41q-23 -23 -49.5 -37t-34.5 -51q-10 -41 -2 -60.5t43 -33.5 q43 -16 85 -30.5t85 -24.5q72 -16 137.5 1t130.5 42q12 4 24.5 11t22.5 11q29 12 44.5 21.5t21.5 20.5t7 28.5t-1 50.5q-4 72 -3 141.5t40 135.5q20 31 42.5 60.5t45.5 57.5q23 27 44 52.5t46 48.5q10 10 26.5 17t30.5 5q66 -6 127.5 -15t120.5 -18q10 -33 15.5 -56t9.5 -36 q2 -39 6 -67.5t-2 -53.5q-8 -29 -20.5 -59.5t-35.5 -50.5q-59 -53 -105 -115.5t-93 -126.5q-14 -27 -43 -26q-29 0 -41 -14.5t-27 -35.5q-23 -35 -21.5 -52t31.5 -38q37 -23 75 -42t83 -19q37 -2 74 0t76 2q-4 27 -5 46t-4 38q-2 49 14.5 88t45.5 64.5t69.5 35.5t88.5 0 q10 -4 19 -12t19 -16t19.5 -16.5t19.5 -16.5q39 -25 43 -43.5t-22 -59.5q-33 -53 -79 -87.5t-101 -61.5q-4 -2 -9 -10q178 -96 328 47q37 35 70 74.5t67 80.5q27 35 51.5 71t59.5 83q6 -31 13 -51.5t3 -38.5q-4 -29 -12 -59.5t-20 -59.5q-31 -61 -83.5 -104t-105.5 -82 q-47 -35 -108.5 -45.5t-120.5 0.5q-47 8 -95.5 24.5t-97.5 26.5q-23 4 -47 8t-45 -4q-51 -18 -97 -16t-87 17t-80 41l-78 52q-18 12 -35.5 27.5t-38.5 32.5q-18 -10 -37.5 -20.5t-39.5 -18.5q-66 -29 -134.5 -34t-136.5 -11q-29 -2 -57.5 11t-57.5 21q-25 8 -49 15.5 t-49 11.5q-49 6 -92 37t-72.5 74t-44 93t-8.5 95zM846 749.5q-14 -61.5 4 -114.5q59 41 109.5 86t93.5 94q10 12 16 28.5t14 30.5q29 61 -14 107q-47 0 -94 -34t-81 -85t-48 -112.5zM1272 362q43 14 74.5 41t56.5 62q6 8 4 23.5t-6 25.5q-4 6 -15.5 10t-21.5 2 q-53 -6 -80.5 -55.5t-11.5 -108.5z" />
<glyph unicode="&#xcf;" horiz-adv-x="1935" d="M2 551q-2 18 4 38.5t14 51.5q33 -47 57.5 -83t53.5 -71q33 -41 66.5 -80.5t70.5 -74.5q145 -143 328 -47q-4 4 -5 6t-5 4q-53 27 -100.5 61.5t-79.5 87.5q-27 41 -23 59.5t43 43.5q10 8 19.5 16t19.5 17q10 8 19.5 16t21.5 12q45 10 86 0t69.5 -35.5t45 -64.5t14.5 -88 q0 -18 -2 -38t-6 -46q39 0 75.5 -2t73.5 0q45 0 84 19.5t74 41.5q31 20 32 38t-22 52q-12 20 -25.5 35t-41.5 15q-10 0 -23.5 8t-19.5 18q-47 63 -93.5 126t-105.5 116q-23 20 -35 51t-20 59q-6 25 -2 53.5t6 67.5q4 12 10 36t16 56q57 8 119 17.5t127 15.5q14 2 30.5 -5 t26.5 -17q47 -45 91 -101q23 -29 46 -58.5t42 -59.5q20 -33 28 -67t11.5 -68.5t1.5 -70.5t-5 -71q-2 -33 -1 -50.5t7.5 -28.5t21.5 -20.5t44 -21.5q12 -4 23.5 -11t23.5 -11q66 -25 131.5 -42.5t137.5 -0.5q43 10 86 24.5t84 30.5q37 14 45 33.5t-2 60.5q-10 37 -37 51.5 t-49 36.5q-35 35 -78 41t-90 2q10 -27 17 -51.5t17 -54.5q-35 10 -59.5 16t-42.5 10q-4 23 -6 40.5t-8 31.5q-14 41 -8 58.5t45 35.5q53 27 110 31t115 0q33 -4 64.5 -20.5t58 -40t45 -52t22.5 -55.5q6 -45 -8 -95t-44 -93t-72 -74t-91 -37q-27 -4 -51.5 -11t-48.5 -16 q-29 -8 -57.5 -21t-57.5 -11q-68 6 -136.5 11t-133.5 34q-20 8 -38.5 18t-39.5 21q-20 -16 -37.5 -32t-36.5 -28q-39 -27 -77.5 -52.5t-79.5 -40.5t-87.5 -17t-97.5 16q-20 8 -44.5 4t-47.5 -8q-49 -10 -96 -26.5t-96 -24.5q-59 -10 -121 0t-109 45q-53 39 -105 82t-81 104 q-14 29 -22.5 59.5t-12.5 59.5zM528.5 488.5q-2.5 -15.5 3.5 -23.5q25 -35 57 -61.5t75 -41.5q18 59 -11 108.5t-82 55.5q-10 2 -21 -2t-15 -10q-4 -10 -6.5 -25.5zM852 874q8 -14 14 -30.5t17 -28.5q43 -49 93 -94t111 -86q18 53 3 114.5t-48.5 112.5t-81 85t-94.5 34 q-43 -45 -14 -107z" />
<glyph unicode="&#xd2;" horiz-adv-x="1587" d="M4 659q8 46 27.5 91t47 83.5t58.5 57.5q4 4 10.5 6t10.5 6q18 8 64 4t96.5 -13t93.5 -23.5t57 -28.5q33 -31 39 -72t16 -84q-68 -18 -91 -2t-38 90q-33 12 -57.5 -2t-42.5 -37q-47 -59 -73.5 -124.5t-22.5 -143.5q0 -27 12 -39t35 -18q55 -18 109.5 -19.5t107.5 25.5 q63 29 123.5 61.5t118.5 69.5q55 35 108 73.5t96 96.5q-10 16 -20 30.5t-21 30.5q-47 66 -49 147t64 154q29 31 61.5 46.5t77.5 4.5q10 -4 21.5 -4t21.5 -2q102 -12 78 -112q-2 -8 -4 -15.5t-6 -19.5q27 2 40 -8.5t19 -25.5t9 -31.5t11 -26.5q-10 -23 -16 -47.5t-20 -32.5 q-25 -12 -35.5 -27.5t-1.5 -50.5q86 43 166 86q53 29 107 59.5t108 59.5q10 4 21 8t22 2q6 -2 15 -11t7 -13q-4 -14 -9 -29t-15 -23q-35 -29 -73 -55.5t-75 -54.5q-23 -16 -43 -30.5t-41 -31.5q-53 -41 -110.5 -62.5t-124.5 -13.5q-35 4 -58.5 -10t-44.5 -37 q-43 -41 -83 -85t-85 -83q-66 -59 -141.5 -99t-165.5 -56q-39 -8 -77 -13.5t-77 -11.5q-43 -6 -88 4.5t-84.5 32t-70.5 54t-45 73.5l-36 94t-32 97q-10 35 -2 81zM952 923.5q-4 -26.5 10.5 -61.5t38.5 -78q20 70 30 117.5t28 102.5q-53 -14 -78 -34t-29 -46.5z" />
<glyph unicode="&#xd3;" horiz-adv-x="1587" d="M2 918q-2 4 7 13t16 11q10 2 21 -2l22 -8q53 -29 107 -59.5t108 -59.5q80 -43 166 -86q8 35 -2.5 50.5t-34.5 27.5q-14 8 -20.5 32.5t-16.5 47.5q8 10 11 26.5t9 31.5t18.5 25.5t41.5 8.5l-6.5 19.5t-4.5 15.5q-25 100 78 112q10 2 22.5 2t22.5 4q43 10 76 -5t62 -46 q66 -74 63.5 -154.5t-49.5 -146.5q-10 -16 -20.5 -30.5t-20.5 -30.5q43 -57 96 -96t109 -74q57 -37 117.5 -70t123.5 -61q53 -27 107.5 -26t109.5 20q23 6 35.5 18t12.5 39q4 78 -23 143.5t-74 124.5q-16 23 -41.5 37t-58.5 2q-14 -74 -38 -90t-91 2q10 43 16 84t39 72 q14 14 57.5 28.5t93.5 23.5t96 13t65 -4q8 -4 20 -12q31 -18 58.5 -57t47 -84t26.5 -91.5t-1 -80.5q-14 -49 -31.5 -96.5t-36.5 -94.5q-16 -41 -45.5 -73.5t-69.5 -54t-85 -32t-88 -4.5q-39 6 -77 11.5t-77 13.5q-90 16 -166 56t-141 99q-45 39 -85 83t-83 85 q-20 23 -44 37.5t-58 9.5q-68 -8 -125.5 13.5t-110.5 62.5q-20 16 -40.5 30.5t-43.5 31.5q-37 29 -75 55.5t-72 54.5q-10 8 -15.5 22.5t-9.5 29.5zM528 1004q18 -55 26.5 -102.5t31.5 -117.5q25 43 39 78t10 61.5t-28.5 46t-78.5 34.5z" />
<glyph unicode="&#xd4;" horiz-adv-x="1499" d="M2 809q4 76 35 137q35 68 78 130.5t86 127.5q6 8 19 12.5t26 8.5q41 8 81 14t81 14q20 4 60 -7t80 -31.5t71.5 -44t37.5 -44.5q14 -41 13.5 -81.5t-21.5 -81.5q-10 -20 -22.5 -32.5t-38.5 -8.5q-16 2 -32.5 -4.5t-33.5 -10.5q-18 -4 -28.5 -5t-18.5 3t-14.5 16t-16.5 35 q20 10 39 17.5t29 19.5q29 35 18.5 64.5t-53.5 48.5q-45 18 -78.5 12t-58.5 -47q-66 -104 -114 -212.5t-48 -235.5q0 -18 6 -38t11 -40q18 6 20 8q10 12 17.5 26.5t14.5 28t18 24.5t30 15q47 12 96 19.5t98 -4.5q29 -8 53.5 -21.5t28.5 -52.5q2 -16 12.5 -30.5t20.5 -35.5 q-29 -25 -54.5 -53.5t-53 -54t-60.5 -46t-71 -30.5q18 -125 155 -135q31 -2 75 6t89 23.5t87 36t73 44.5q-59 72 -62.5 151t37.5 165q35 6 71 12t73 12q98 14 165 -65q16 -23 22.5 -43.5t-9.5 -55.5q-20 -41 -34.5 -84t-39.5 -83q-4 -8 -3 -20.5t1 -27.5q55 -16 100 -1.5 t86 51.5q59 59 120 116.5t124 118.5q2 -10 3 -19.5t1 -17.5q-4 -45 -8 -89t-8 -87q-2 -29 -15.5 -56.5t-35 -50t-48 -39t-55.5 -22.5q-33 -6 -65.5 -10t-65.5 -6q-47 -4 -90 1t-84 34q-27 16 -51.5 14t-54.5 -18q-72 -39 -145 -68t-159 -25q-123 6 -223 61.5t-166 157.5 q-12 20 -30.5 37t-34.5 33q-53 49 -90 119t-54.5 147.5t-13.5 153.5zM367 453q25 8 39 15t20 16.5t6 23.5t-4 39q-23 -6 -34 -12.5t-17 -15.5t-8 -24t-2 -42zM941 468q-3 -32 13 -79q16 23 27.5 38t19.5 32q20 35 15.5 46t-49.5 30q-23 -35 -26 -67z" />
<glyph unicode="&#xd5;" horiz-adv-x="1499" d="M0 522q0 8 1 17.5t3 19.5q63 -61 123.5 -118.5t120.5 -116.5q41 -37 86 -51.5t100 1.5q0 14 1 26.5t-3 21.5q-25 41 -39 84t-35 83q-16 35 -10 55.5t23 43.5q68 80 166 65q37 -6 72.5 -12t70.5 -12q41 -86 38 -165t-63 -151q31 -25 73 -45t87 -35.5t89 -23.5t75 -6 q66 4 105.5 38.5t48.5 96.5q-39 10 -71 30.5t-59.5 46t-53 54.5t-54.5 53q10 20 20.5 34.5t12.5 31.5q4 39 28.5 52t53.5 22q49 12 98 4.5t96 -19.5q18 -4 29.5 -15t19 -24.5t14.5 -28t17 -26.5q2 -2 21 -8q4 20 10 39.5t6 38.5q0 127 -48 235.5t-114 212.5q-25 41 -59.5 47 t-77.5 -12t-53.5 -48t18.5 -65q10 -12 28.5 -19t39.5 -18q-10 -23 -16.5 -35t-14.5 -16t-18.5 -3t-28.5 5q-16 4 -32.5 10.5t-33.5 4.5q-27 -4 -39 8t-22 33q-20 41 -21.5 81.5t13.5 81.5q6 20 37.5 44t71.5 44.5t79 31.5t62 7q41 -8 80.5 -14t80.5 -14l25.5 -8.5 t19.5 -12.5q43 -66 86 -128t78 -130q31 -61 35 -137t-13.5 -153.5t-54 -147.5t-90.5 -119q-18 -16 -35.5 -32.5t-29.5 -37.5q-66 -102 -166 -157.5t-223 -61.5q-86 -4 -159 25t-144 68q-31 16 -55.5 18t-51.5 -14q-41 -29 -84 -34t-90 -1q-33 2 -65.5 6t-65.5 10 q-31 6 -57.5 22.5t-48 39t-34 50t-14.5 56.5q-4 43 -8 87t-8 89zM482 505.5q-5 -11.5 14 -46.5q10 -16 21 -31.5t28 -38.5q16 47 12 79t-27 67q-43 -18 -48 -29.5zM1067 508q0 -14 6 -23.5t19.5 -16.5t37.5 -15q0 27 -1 42t-7 24t-18.5 15.5t-32.5 12.5q-4 -25 -4 -39z" />
<glyph unicode="&#xd9;" horiz-adv-x="1562" d="M4 682q-10 57 0 116.5t14 119.5q0 12 9 20q39 41 81 81t88 67.5t100 41t120 2.5q10 -2 22.5 2.5t22.5 8.5v16q-18 4 -40 9t-52 16q86 10 147.5 -5.5t97.5 -91.5q8 -14 21.5 -25t26.5 -24q41 -43 37.5 -93t-46.5 -91q-63 -59 -125.5 -59t-121.5 63q-35 37 -68 32t-68 -18 q-35 -12 -54 -34.5t-21 -63.5q-4 -63 17 -116.5t67 -92.5q25 -23 63.5 -30t73.5 -11q121 -6 231 51q61 31 119.5 64t118.5 63q14 6 27.5 12.5t27.5 6.5q45 -4 89 -6t89 -13q25 -6 43.5 -21t31.5 -36.5t18.5 -48.5t2.5 -51q-6 -37 -10 -74t-6 -74q-2 -43 22.5 -74.5 t65.5 -41.5q16 -4 36.5 0t33.5 14q29 25 49 54.5t25 70.5q4 41 13 83t17 85q27 -33 51.5 -62.5t51.5 -62.5q-4 -12 -11.5 -29.5t-5.5 -36.5q6 -57 -26.5 -104t-83 -77t-110.5 -41t-112 5q-123 39 -199.5 121t-121.5 205q-23 -16 -43.5 -30.5t-36.5 -33.5q-72 -68 -164 -98 q-88 -29 -175 -35t-177 -2q-72 4 -120 39t-77 90q-33 59 -59.5 120.5t-36.5 127.5z" />
<glyph unicode="&#xda;" horiz-adv-x="1564" d="M0 461q29 33 52 62.5t52 62.5q8 -43 16.5 -85t12.5 -83t25.5 -71t50.5 -54q10 -10 30.5 -14.5t36.5 0.5q41 10 66 41.5t23 74.5q0 37 -5.5 74t-9.5 74q-4 25 2 51.5t18.5 48t32 36.5t43.5 21q43 10 87.5 12.5t89.5 6.5q14 0 28.5 -6t26.5 -13q59 -31 118.5 -63.5 t118.5 -63.5q111 -57 232 -51q35 4 74 11.5t65 29.5q90 78 84 209q-4 41 -22.5 63.5t-53.5 34.5t-68.5 17.5t-68.5 -31.5q-59 -63 -121.5 -63t-126.5 59q-43 41 -45 91t39 93q10 12 24.5 23.5t20.5 25.5q39 76 100.5 91.5t147.5 5.5q-33 -10 -53.5 -15.5t-40.5 -9.5v-16 q12 -4 24.5 -8.5t22.5 -2.5q66 10 119 -3t99 -40.5t87 -67.5t82 -81q6 -4 10 -20q4 -59 13.5 -119t-0.5 -117q-10 -66 -36 -127t-59 -121q-31 -55 -79 -90t-117 -39q-92 -4 -179.5 2t-173.5 35q-49 16 -89 40t-74 58q-18 18 -39 32.5t-41 31.5q-45 -123 -123 -205t-201 -121 q-51 -16 -110.5 -5t-110.5 41t-83 77t-26 104q2 18 -6 36t-12 30z" />
<glyph unicode="&#x2000;" horiz-adv-x="944" />
<glyph unicode="&#x2001;" horiz-adv-x="1888" />
<glyph unicode="&#x2002;" horiz-adv-x="944" />
<glyph unicode="&#x2003;" horiz-adv-x="1888" />
<glyph unicode="&#x2004;" horiz-adv-x="629" />
<glyph unicode="&#x2005;" horiz-adv-x="472" />
<glyph unicode="&#x2006;" horiz-adv-x="314" />
<glyph unicode="&#x2007;" horiz-adv-x="314" />
<glyph unicode="&#x2008;" horiz-adv-x="236" />
<glyph unicode="&#x2009;" horiz-adv-x="377" />
<glyph unicode="&#x200a;" horiz-adv-x="104" />
<glyph unicode="&#x2010;" d="M0 571q37 -18 76 -24t76.5 -6t76.5 1t76 -3q76 -10 151.5 -16.5t151.5 -16.5q16 -2 32.5 -8t33.5 -11v-24q-39 -10 -78 -25.5t-80 -13.5q-35 2 -67.5 -3t-64.5 -11.5t-64.5 -11.5t-65.5 -7q-29 -4 -55.5 -3t-48.5 18q-33 23 -66 44t-61 48q-12 10 -15.5 30.5t-7.5 42.5z " />
<glyph unicode="&#x2011;" d="M0 571q37 -18 76 -24t76.5 -6t76.5 1t76 -3q76 -10 151.5 -16.5t151.5 -16.5q16 -2 32.5 -8t33.5 -11v-24q-39 -10 -78 -25.5t-80 -13.5q-35 2 -67.5 -3t-64.5 -11.5t-64.5 -11.5t-65.5 -7q-29 -4 -55.5 -3t-48.5 18q-33 23 -66 44t-61 48q-12 10 -15.5 30.5t-7.5 42.5z " />
<glyph unicode="&#x2012;" d="M0 571q37 -18 76 -24t76.5 -6t76.5 1t76 -3q76 -10 151.5 -16.5t151.5 -16.5q16 -2 32.5 -8t33.5 -11v-24q-39 -10 -78 -25.5t-80 -13.5q-35 2 -67.5 -3t-64.5 -11.5t-64.5 -11.5t-65.5 -7q-29 -4 -55.5 -3t-48.5 18q-33 23 -66 44t-61 48q-12 10 -15.5 30.5t-7.5 42.5z " />
<glyph unicode="&#x2013;" horiz-adv-x="985" d="M0 573q53 4 99 7.5t91 7.5q115 8 227.5 15t227.5 11q63 2 126 -2l126 -8q82 -2 88 -98q-23 -12 -45 -27.5t-49 -19.5q-90 -18 -179 -29.5t-177 -34.5q-53 -12 -107.5 -15t-108.5 -28q-23 -10 -53 -8t-59 6q-43 4 -86 11.5t-94 15.5q-12 20 -15.5 43.5t-3.5 48.5v51.5 t-8 52.5z" />
<glyph unicode="&#x2014;" horiz-adv-x="1206" d="M0 586q92 -4 180 -5t176 -6q104 -4 208 -6t208 -6q63 -4 126 -9t128 -5q82 -2 126 -52.5t54 -121.5q-47 4 -90 7t-88 3q-98 2 -195.5 0t-195.5 2q-88 4 -176 13.5t-176 17.5q-33 4 -66 7t-61 15q-53 20 -96.5 53.5t-61.5 92.5z" />
<glyph unicode="&#x2018;" horiz-adv-x="192" d="M0 1294q96 33 145 -43q8 -12 10.5 -27.5t4.5 -31.5q10 -47 17 -96t16 -99l-9 -8q-10 4 -21 8t-22 13q-37 27 -60.5 63.5t-37.5 81.5q-10 35 -21.5 70t-21.5 69z" />
<glyph unicode="&#x2019;" horiz-adv-x="169" d="M0 1026q4 37 5 73t4 71.5t10.5 70.5t25.5 70q35 4 61.5 -11.5t51.5 -35.5q16 -12 11 -28.5t-11 -33.5q-12 -31 -29 -63q-4 -10 -12 -16.5t-15 -16.5q-4 -8 -7 -15.5t-7 -15.5q-10 -25 -30.5 -36t-43.5 -19q-2 0 -6 2z" />
<glyph unicode="&#x201c;" horiz-adv-x="317" d="M2 1131.5q-2 37.5 0 76.5q0 29 7.5 59.5t13.5 63.5q33 -4 53 -18.5t20 -38.5q0 -66 -9 -129.5t-38 -122.5q-37 0 -41 35q-4 37 -6 74.5zM176 989q-2 90 12.5 171t30.5 163h29q35 -4 49 -16.5t18 -46.5q2 -14 2 -27.5v-28.5q-4 -27 -6 -51t-6 -53q-8 4 -13 4t-11 4 q-6 -12 -13.5 -23.5t-9.5 -23.5q-6 -35 -30.5 -45t-51.5 -27z" />
<glyph unicode="&#x201d;" horiz-adv-x="309" d="M0 1292q29 16 50.5 9t43.5 -13q18 -51 11 -101t-5 -100q-18 8 -31.5 19.5t-24.5 34t-21.5 59.5t-22.5 92zM177 1250.5q1 37.5 1 76.5q10 6 19.5 12.5t21.5 14.5q14 -10 27.5 -18.5t25.5 -18.5q10 -10 18.5 -22.5t2.5 -30.5q-4 -6 -2 -13.5t4 -15.5q2 -14 5 -26.5t5 -26.5 q12 -95 -41 -189q-18 2 -29.5 12.5t-15.5 26.5q-10 35 -22.5 71t-16.5 71q-4 39 -3 76.5z" />
<glyph unicode="&#x2022;" horiz-adv-x="301" d="M4 526q-8 29 1 53.5t32 41.5q41 29 84 45t90 30q39 10 62.5 -10t27.5 -61q0 -27 -1 -52.5t-3 -54.5q-4 -45 -37 -76l-4 -4q-10 -25 -21.5 -36t-28 -16t-37.5 -3t-54 6q2 0 -9.5 2t-29 14.5t-38 40t-34.5 80.5z" />
<glyph unicode="&#x202f;" horiz-adv-x="377" />
<glyph unicode="&#x205f;" horiz-adv-x="472" />
<glyph unicode="&#x25fc;" horiz-adv-x="983" d="M0 0v983h983v-983h-983z" />
</font>
</defs>
</svg>
